Уважаемые гости сайта! Добро Пожаловать на наш торрент трекер,где Вы можете бесплатно скачать любой Софт,Фильмы,Музыку и многое другое! А так же постоянно ведется набор модераторов и релизеров. Зарегистрируйтесь сейчас, чтобы получить доступ ко всем функциям. После регистрации или входа на сайт вы сможете создавать темы, отвечать на сообщения и скачивать файлы.

Навигация по Торрент раздачам и Форум и Стол заказов и Группы

 Дом Дракона / House of the Dragon / Сезон: 10 / Серии: 1 из 10 (Мигель Сапочник, Грег Яйтанс, Клер Килнер) [2022, фэнтези, боевик, драма, мелодрама, WEB-DLRip]

Главная  Сериалы  Американские и Европейские сериалы
Статистика раздачи
Скачал: [ 1 ]
 
     
 
 
 
Автор Сообщение
  • Создавать темы 24-Окт-2022 21:03

    Дом Дракона | House of the Dragon
    Год выпуска: 2022
    Страна: США
    Студия: Good Banana, Home Box Office (HBO)
    Жанр: фэнтези, боевик, драма, мелодрама
    Серии (нумерация): 1
    Сезон (нумерация): 10
    Всего серий: 10
    Продолжительность: ~01:00:00 серия
    Перевод: Профессиональный (дублированный) Кравец-Рекордз по заказу Amedia
    Режиссёр: Мигель Сапочник, Грег Яйтанс, Клер Килнер
    В ролях: Пэдди Консидайн, Оливия Кук, Эмма Д’Арси, Мэтт Смит, Стив Туссэн, Ив Бест, Рис Иванс, Соноя Мидзуно, Фабьен Франкель, Милли Олкок и другие
    Описание: «Дом дракона» — мегаожидаемый приквел и одновременно спин-офф фэнтези «Игра престолов», главного хита не только канала HBO, но и всего современного ТВ. Сериал долго прокладывал свой путь на экраны и бился с четырьмя другими заявками, а по пути обрастал огромным бюджетом. Это дало его создателям Райану Кондалу («Колония») и Мигелю Сапочнику (эпизод материнского сериала «Битва бастардов») возможность снимать на натуре, вложиться в богатый реквизит и декорации, продумать каждую мельчайшую деталь, разработать уникальные дизайны 17 новых свирепых драконов, создать масштабные боевые сцены и экшен голливудского масштаба, пригласить на главные роли таких харизматиков, как Пэдди Консидайн и Мэтт Смит. На «Дом дракона» возложена гигантская ответственность — он должен не только окупиться, оправдать ожидания преданных фанатов саги и, возможно, исправить ошибки прародителя. От его успеха еще и зависит быть ли настоящей франшизе по миру «Престолов» по примеру Marvel и «Звездных войн» или нет.
    Когда старый король Джейхэйрис Таргариен (Майкл Картер), правивший Вестеросом больше 60 лет в мире и процветании, понял, что его конец близок, а сыновья, которым он мог бы передать трон, погибли, он созвал Великий Совет. Престол тогда унаследовал мудрый и великодушный Визэрис I (Пэдди Консидайн), сумевший сохранить в королевстве благополучие. Через несколько лет и он столкнулся с той же проблемой, что и предок, — отсутствие наследника мужского пола. В Малом Совете начались роптания, а хитроумный и скользкий десница Отто Хайтауэр (Рис Иванс) стал подталкивать правителя к принятию непростого решения. Кандидатов на трон после его смерти оказалось трое: старшая дочь Рэйнира (Милли Олкок), которую, впрочем, никто из великих лордов не рассматривал всерьез из-за того, что она женщина. Вторым претендентом прослыл амбициозный, но вспыльчивый и жестокий брат короля принц Дэймон (Мэтт Смит). А третьим стал и вовсе пока нерожденный сын в утробе королевы Эйммы Аррен (Сиан Брук). В ходе тяжелых родов и мать, и дитя гибнут, и скорбящий Визэрис делает выбор в пользу Рэйниры. Вот только у его приближенных свои мысли на этот счет: никто из них не желает уступать трон женщине, и в темных коридорах дворца уже зреет вероломный план, способный привести к гражданской войне и разрушить великую валирийскую династию…
    Качество: WEB-DLRip
    Формат: AVI
    Видео: 704x352 at 23.976 fps, XviD, ~1700 kbps avg
    Аудио: Russian: 48 kHz, AC3, 3/2 (L,C,R,l,r) + LFE ch, ~384 kbps avg
    Субтитры: Russian (Forced)

    MediaInfo

    Общее
    Полное имя : House.of.the.Dragon.S01E02.avi
    Формат : AVI
    Формат/Информация : Audio Video Interleave
    Размер файла : 799 Мбайт
    Продолжительность : 53 м. 51 с.
    Общий поток : 2 074 Кбит/сек
    Программа кодирования : VirtualDubMod 1.5.10.3 (build 2550/release)
    Библиотека кодирования : VirtualDubMod build 2550/release
    Видео
    Идентификатор : 0
    Формат : MPEG-4 Visual
    Профиль формата : Advanced Simple@L5
    Настройки формата : BVOP1 / Custom Matrix
    Параметр BVOP формата : 1
    Параметр QPel формата : Нет
    Параметр GMC формата : Без точки перехода
    Параметр матрицы формата : Выборочная
    Идентификатор кодека : XVID
    Идентификатор кодека/Подсказка : XviD
    Продолжительность : 53 м. 51 с.
    Битрейт : 1 681 Кбит/сек
    Ширина : 704 пикселя
    Высота : 352 пикселя
    Соотношение сторон : 2,000
    Частота кадров : 23,976 (24000/1001) кадра/сек
    Цветовое пространство : YUV
    Субдискретизация насыщенности : 4:2:0
    Битовая глубина : 8 бит
    Тип развёртки : Прогрессивная
    Метод сжатия : С потерями
    Бит/(Пиксели*Кадры) : 0.283
    Размер потока : 648 Мбайт (81%)
    Библиотека кодирования : XviD 69
    Аудио
    Идентификатор : 1
    Формат : AC-3
    Формат/Информация : Audio Coding 3
    Коммерческое название : Dolby Digital
    Идентификатор кодека : 2000
    Продолжительность : 53 м. 51 с.
    Вид битрейта : Постоянный
    Битрейт : 384 Кбит/сек
    Каналы : 6 каналов
    Channel layout : L R C LFE Ls Rs
    Частота : 48,0 КГц
    Частота кадров : 31,250 кадров/сек (1536 SPF)
    Метод сжатия : С потерями
    Размер потока : 148 Мбайт (19%)
    Выравнивание : Разделение по промежуткам
    Продолжительность промежутка : 42 мс. (1,00 видеокадр)
    Время предзагрузки промежутка : 500 мс.
    Service kind : Complete Main

    Скриншоты

    Показать сообщения:    
    Главная  Сериалы  Американские и Европейские сериалы

    Текущее время: 04-Дек 12:36

    Часовой пояс: UTC + 11



    Вы не можете начинать темы
    Вы не можете отвечать на сообщения
    Вы не можете редактировать свои сообщения
    Вы не можете удалять свои сообщения
    Вы не можете голосовать в опросах
    Вы не можете прикреплять файлы к сообщениям
    Вы не можете скачивать файлы