Уважаемые гости сайта! Добро Пожаловать на наш торрент трекер,где Вы можете бесплатно скачать любой Софт,Фильмы,Музыку и многое другое! А так же постоянно ведется набор модераторов и релизеров. Зарегистрируйтесь сейчас, чтобы получить доступ ко всем функциям. После регистрации или входа на сайт вы сможете создавать темы, отвечать на сообщения и скачивать файлы.

Навигация по Торрент раздачам и Форум и Стол заказов и Группы

 Вышка / Fall (Скотт Манн / Scott Mann) [2022, Триллер, BDRip]

Главная  Кинофильмы  Зарубежные кинофильмы  Фильмы 2011-2022 годов
Статистика раздачи
Нет
 
     
 
 
 
Автор Сообщение
  • Создавать темы 16-Окт-2022 22:55

    Вышка | Fall
    Год выпуска: 2022
    Страна: Великобритания, США, Tea Shop Productions, Capstone Studios
    Жанр: Триллер
    Продолжительность: 01:42:24
    Cубтитры: нет
    Перевод: Профессиональный (полное дублирование) | iTunes
    Режиссер: Скотт Манн / Scott Mann
    В ролях: Грэйс Фултон, Вирджиния Гарднер, Джеффри Дин Морган, Мэйсон Гудинг, Джаспер Коул, Бранден Керри, Даррел Деннис, Бамм Эриксен, Ник Лайнс, Иви Манн
    Описание: Бекки всегда любила экстрим, но после гибели мужа во время скалолазания она завязала с опасным увлечением. Когда ее подруга Хантер предлагает Бекки покорить вместе с ней радиомачту, героиня решает в последний раз взглянуть страху в лицо. Но на 600-метровой высоте что-то идет не так…
    Качество видео: BDRip
    Формат видео: AVI
    Видео: 704x352 (2.000), 23.976 fps, XviD build 67 ~ 1555 kbps
    Аудио: 48 kHz, AC3 Dolby Digital, 3/2 (L,C,R,l,r) + LFE ch, ~ 384 kbps

    MediaInfo

    General
    Complete name : E:TorrentsFall.2022.BDRip_от New-Team_by_JNS82.avi
    Format : AVI
    Format/Info : Audio Video Interleave
    File size : 1.46 GiB
    Duration : 1 h 47 min
    Overall bit rate : 1 948 kb/s
    Movie name : Вышка 2022
    Director : Скотт Манн
    Genre : Триллер
    Writing application : VirtualDubModRus 1.5.10.2 (build 2542/release)
    Writing library : VirtualDubMod build 2542/release
    Copyright : Великобритания, США / Capstone Studios, Tea Shop & Film Company
    Comment : Rip by JNS82
    Video
    ID : 0
    Format : MPEG-4 Visual
    Format profile : Advanced Simple@L5
    Format settings : BVOP1 / Custom Matrix
    Format settings, BVOP : 1
    Format settings, QPel : No
    Format settings, GMC : No warppoints
    Format settings, Matrix : Custom
    Codec ID : XVID
    Codec ID/Hint : XviD
    Duration : 1 h 47 min
    Bit rate : 1 555 kb/s
    Width : 704 pixels
    Height : 352 pixels
    Display aspect ratio : 2.000
    Frame rate : 23.976 (24000/1001) FPS
    Color space : YUV
    Chroma subsampling : 4:2:0
    Bit depth : 8 bits
    Scan type : Progressive
    Compression mode : Lossy
    Bits/(Pixel*Frame) : 0.262
    Stream size : 1.17 GiB (80%)
    Writing library : XviD 67
    Audio
    ID : 1
    Format : AC-3
    Format/Info : Audio Coding 3
    Commercial name : Dolby Digital
    Codec ID : 2000
    Duration : 1 h 47 min
    Bit rate mode : Constant
    Bit rate : 384 kb/s
    Channel(s) : 6 channels
    Channel layout : L R C LFE Ls Rs
    Sampling rate : 48.0 kHz
    Frame rate : 31.250 FPS (1536 SPF)
    Compression mode : Lossy
    Stream size : 295 MiB (20%)
    Alignment : Split across interleaves
    Interleave, duration : 42 ms (1.00 video frame)
    Interleave, preload duratio : 500 ms
    Title : [DUB] - iTunes
    Service kind : Complete Main

    Скриншоты

    Показать сообщения:    
    Главная  Кинофильмы  Зарубежные кинофильмы  Фильмы 2011-2022 годов

    Текущее время: 04-Дек 12:57

    Часовой пояс: UTC + 11



    Вы не можете начинать темы
    Вы не можете отвечать на сообщения
    Вы не можете редактировать свои сообщения
    Вы не можете удалять свои сообщения
    Вы не можете голосовать в опросах
    Вы не можете прикреплять файлы к сообщениям
    Вы не можете скачивать файлы