Уважаемые гости сайта! Добро Пожаловать на наш торрент трекер,где Вы можете бесплатно скачать любой Софт,Фильмы,Музыку и многое другое! А так же постоянно ведется набор модераторов и релизеров. Зарегистрируйтесь сейчас, чтобы получить доступ ко всем функциям. После регистрации или входа на сайт вы сможете создавать темы, отвечать на сообщения и скачивать файлы.

Навигация по Торрент раздачам и Форум и Стол заказов и Группы

 Страна снов / Slumberland (2022) WEB-DL 1080p от селезень | P

Главная  Кинофильмы  Зарубежные кинофильмы  Фильмы 2011-2022 годов
Статистика раздачи
Нет
 
     
 
 
 
Автор Сообщение
  • Создавать темы 24-Ноя-2022 19:42

    Информация о фильме
    Название: Страна снов
    Оригинальное название: Slumberland
    Год выхода: 2021
    Жанр: Мюзикл, фэнтези, комедия, приключения, семейный
    Режиссер: Френсис Лоуренс
    В ролях: Марлоу Баркли, Джейсон Момоа, Крис О’Дауд, Кайл Чандлер, Индия де Бефорт, Хамберли Гонсалес, Веруче Опиа, Тоня Корнелисс

    О фильме: Юная Немо находит таинственную карту, которая переносит её в страну снов, где девочка надеется встретить покойного отца.
    Страна: США
    Студия: Chernin Entertainment
    Продолжительность: 02:00:35
    Перевод: Профессиональный многоголосый | Jaskier
    Качество: WEB-DL 1080p
    Видео: MPEG-4 AVC, 1920x1080, 4711 Kbit/s, 24.000 fps
    Аудио #01: 48 kHz, AC3, 5.1, 384 Kbps | Профессиональный многоголосый | Jaskier | RUS |
    Аудио #02: 48 kHz, E-AC3+Atmos, 5.1, 768 Kbps | Оригинал | ENG |
    Субтитры: Русские (Full), украинские (Full), английские

    Скриншоты

    MI

    General
    Unique ID : 175391310107759542260775440580176488035 (0x83F3233A8D569291D3DD72598D27A663)
    Complete name : D:VideosSlumberland.2022.WEB-DL.1080p.seleZen.mkv
    Format : Matroska
    Format version : Version 4
    File size : 4.94 GiB
    Duration : 2 h 0 min
    Overall bit rate mode : Variable
    Overall bit rate : 5 865 kb/s
    Movie name : Slumberland 2022 from seleZen
    Encoded date : UTC 2022-11-22 18:19:01
    Writing application : mkvmerge v59.0.0 ('Shining Star') 64-bit
    Writing library : libebml v1.4.2 + libmatroska v1.6.4
    Video
    ID : 1
    Format : AVC
    Format/Info : Advanced Video Codec
    Format profile : High@L4
    Format settings : CABAC / 4 Ref Frames
    Format settings, CABAC : Yes
    Format settings, Reference : 4 frames
    Codec ID : V_MPEG4/ISO/AVC
    Duration : 2 h 0 min
    Bit rate mode : Variable
    Bit rate : 4 711 kb/s
    Maximum bit rate : 20.0 Mb/s
    Width : 1 920 pixels
    Height : 1 080 pixels
    Display aspect ratio : 16:9
    Frame rate mode : Constant
    Frame rate : 24.000 FPS
    Color space : YUV
    Chroma subsampling : 4:2:0
    Bit depth : 8 bits
    Scan type : Progressive
    Bits/(Pixel*Frame) : 0.095
    Stream size : 3.97 GiB (80%)
    Writing library : x264 core 148 r2727 7d026e8
    Encoding settings : cabac=1 / ref=4 / deblock=1:0:0 / analyse=0x3:0x111 / me=umh / subme=10 / psy=1 / psy_rd=1.00:0.00 / mixed_ref=1 / me_range=120 / chroma_me=1 / trellis=2 / 8x8dct=1 / cqm=0 / deadzone=21,11 / fast_pskip=1 / chroma_qp_offset=-2 / threads=8 / lookahead_threads=2 / sliced_threads=0 / nr=0 / decimate=1 / interlaced=0 / bluray_compat=0 / stitchable=1 / constrained_intra=0 / bframes=16 / b_pyramid=2 / b_adapt=2 / b_bias=0 / direct=3 / weightb=1 / open_gop=0 / weightp=2 / keyint=240 / keyint_min=121 / scenecut=0 / intra_refresh=0 / rc_lookahead=240 / rc=crf / mbtree=1 / crf=19.0 / qcomp=0.50 / qpmin=6 / qpmax=51 / qpstep=4 / vbv_maxrate=20000 / vbv_bufsize=25000 / crf_max=0.0 / nal_hrd=vbr / filler=0 / ip_ratio=1.40 / aq=1:0.80
    Language : English
    Default : Yes
    Forced : No
    Audio #1
    ID : 2
    Format : AC-3
    Format/Info : Audio Coding 3
    Commercial name : Dolby Digital
    Codec ID : A_AC3
    Duration : 2 h 0 min
    Bit rate mode : Constant
    Bit rate : 384 kb/s
    Channel(s) : 6 channels
    Channel layout : L R C LFE Ls Rs
    Sampling rate : 48.0 kHz
    Frame rate : 31.250 FPS (1536 SPF)
    Compression mode : Lossy
    Stream size : 331 MiB (7%)
    Title : MVO [Jaskier]
    Language : Russian
    Service kind : Complete Main
    Default : Yes
    Forced : Yes
    Audio #2
    ID : 3
    Format : E-AC-3 JOC
    Format/Info : Enhanced AC-3 with Joint Object Coding
    Commercial name : Dolby Digital Plus with Dolby Atmos
    Codec ID : A_EAC3
    Duration : 2 h 0 min
    Bit rate mode : Constant
    Bit rate : 768 kb/s
    Channel(s) : 6 channels
    Channel layout : L R C LFE Ls Rs
    Sampling rate : 48.0 kHz
    Frame rate : 31.250 FPS (1536 SPF)
    Compression mode : Lossy
    Stream size : 663 MiB (13%)
    Title : Original
    Language : English
    Service kind : Complete Main
    Default : No
    Forced : No
    Complexity index : 16
    Number of dynamic objects : 15
    Bed channel count : 1 channel
    Bed channel configuration : LFE
    Text #1
    ID : 4
    Format : UTF-8
    Codec ID : S_TEXT/UTF8
    Codec ID/Info : UTF-8 Plain Text
    Duration : 1 h 56 min
    Bit rate : 72 b/s
    Frame rate : 0.198 FPS
    Count of elements : 1389
    Stream size : 62.0 KiB (0%)
    Title : Full
    Language : Russian
    Default : No
    Forced : No
    Text #2
    ID : 5
    Format : UTF-8
    Codec ID : S_TEXT/UTF8
    Codec ID/Info : UTF-8 Plain Text
    Duration : 1 h 56 min
    Bit rate : 69 b/s
    Frame rate : 0.197 FPS
    Count of elements : 1381
    Stream size : 59.7 KiB (0%)
    Title : Full
    Language : Ukrainian
    Default : No
    Forced : No
    Text #3
    ID : 6
    Format : UTF-8
    Codec ID : S_TEXT/UTF8
    Codec ID/Info : UTF-8 Plain Text
    Duration : 1 h 50 min
    Bit rate : 52 b/s
    Frame rate : 0.227 FPS
    Count of elements : 1504
    Stream size : 42.7 KiB (0%)
    Title : Full
    Language : English
    Default : No
    Forced : No
    Text #4
    ID : 7
    Format : UTF-8
    Codec ID : S_TEXT/UTF8
    Codec ID/Info : UTF-8 Plain Text
    Duration : 58 min 1 s
    Bit rate : 1 b/s
    Frame rate : 0.007 FPS
    Count of elements : 23
    Stream size : 511 Bytes (0%)
    Title : Forced
    Language : English
    Default : No
    Forced : No
    Text #5
    ID : 8
    Format : UTF-8
    Codec ID : S_TEXT/UTF8
    Codec ID/Info : UTF-8 Plain Text
    Duration : 1 h 56 min
    Bit rate : 73 b/s
    Frame rate : 0.304 FPS
    Count of elements : 2135
    Stream size : 63.1 KiB (0%)
    Title : SDH
    Language : English
    Default : No
    Forced : No
    Релиз: Присоединяйся к: Кликай на баннеры.
    Показать сообщения:    
    Главная  Кинофильмы  Зарубежные кинофильмы  Фильмы 2011-2022 годов

    Текущее время: 30-Ноя 04:00

    Часовой пояс: UTC + 11



    Вы не можете начинать темы
    Вы не можете отвечать на сообщения
    Вы не можете редактировать свои сообщения
    Вы не можете удалять свои сообщения
    Вы не можете голосовать в опросах
    Вы не можете прикреплять файлы к сообщениям
    Вы не можете скачивать файлы