Уважаемые гости сайта! Добро Пожаловать на наш торрент трекер,где Вы можете бесплатно скачать любой Софт,Фильмы,Музыку и многое другое! А так же постоянно ведется набор модераторов и релизеров. Зарегистрируйтесь сейчас, чтобы получить доступ ко всем функциям. После регистрации или входа на сайт вы сможете создавать темы, отвечать на сообщения и скачивать файлы.

Навигация по Торрент раздачам и Форум и Стол заказов и Группы

 Дополнительный урок (2022) WEB-DL 1080p

Главная  Кинофильмы  Российские кинофильмы  Фильмы 2011-2022 годов
Статистика раздачи
Нет
 
     
 
 
 
Автор Сообщение
  • Создавать темы 24-Ноя-2022 19:28

    Информация о фильме
    Название: Дополнительный урок
    Год выхода: 2022
    Жанр: Драма, детектив
    Режиссер: Анна Курбатова
    В ролях: Кирилл Кяро, Юлия Александрова, Олег Васильков, Влад Коноплёв, Матвей Астраханцев, Олег Чугунов, Александра Дроздова, Валерия Богданова, Даниил Слуцкий, Николай Балобан, Дмитрий Сутырин, Олег Алмазов, Игорь Ботвин, Анна Бреннер-Вартаньян, Сергей Мурзин, Ирина Сотикова, Екатерина Решетникова, Варвара Кисельникова, Кира Кауфман, Анна Щетинина, Мария Одегова, Мария Сандлер, Сергей Интяков, Варвара Маркевич, Булат Шамсутдинов, Алексей Васильев, Степан Ратников, Владимир Вержбицкий
    О фильме:
    Во время очередного дежурства патрульная Вера Седова в одиночку предотвращает трагедию в колледже, но при этом погибает студент. Она утверждает, что у парня был обрез, однако никакого оружия не обнаружено. Полицейскую проклинают родители и общественность. Единственный, кому становится по-человечески жалко Веру, — адвокат по назначению Илья Нестеров. Илья всё больше погружается в дело и убеждается, что его подзащитная может быть права.

    Страна: Россия
    Студия: ООО «Смарт Фильм», АНО «Интерфест»
    Продолжительность: 01:37:00
    Язык: Русский
    Цифровой релиз: 24 ноября 2022 года
    Примечание: Без рекламы
    Файл
    Формат: MKV
    Качество: WEB-DL 1080p
    Видео: MPEG-4 AVC, ~ 6000 Кбит/с, 1920x804
    Звук: E-AC3, 6 ch, 256 Кбит/с
    Субтитры: Отсутствуют
    Семпл

    Скриншоты

    MI

    Общее
    Уникальный идентификатор : 255051433704622235855752808633322207575 (0xBFE11E8DEC1D5981E48CC81D7EE07957)
    Полное имя : D:Dopolnitelnyj.urok.2022.WEB-DL.1080p.mkv
    Формат : Matroska
    Версия формата : Version 4
    Размер файла : 4,22 Гбайт
    Продолжительность : 1 ч. 37 м.
    Общий поток : 6 226 Кбит/сек
    Название фильма : Dopolnitelnyj.urok.2022.WEB-DL.1080p
    Дата кодирования : UTC 2022-11-24 00:11:16
    Программа кодирования : mkvmerge v68.0.0 ('The Curtain') 64-bit
    Библиотека кодирования : libebml v1.4.2 + libmatroska v1.6.4
    Attachments : poster.jpg
    Видео
    Идентификатор : 1
    Формат : AVC
    Формат/Информация : Advanced Video Codec
    Профиль формата : High@L4
    Настройки формата : CABAC / 5 Ref Frames
    Параметр CABAC формата : Да
    Параметр RefFrames формата : 5 кадров
    Идентификатор кодека : V_MPEG4/ISO/AVC
    Продолжительность : 1 ч. 37 м.
    Битрейт : 6 000 Кбит/сек
    Ширина : 1 920 пикселей
    Высота : 804 пикселя
    Соотношение сторон : 2,40:1
    Режим частоты кадров : Постоянный
    Частота кадров : 24,000 кадра/сек
    Цветовое пространство : YUV
    Субдискретизация насыщенности : 4:2:0
    Битовая глубина : 8 бит
    Тип развёртки : Прогрессивная
    Бит/(Пиксели*Кадры) : 0.162
    Размер потока : 4,04 Гбайт (96%)
    Библиотека кодирования : x264 core 157
    Настройки программы : cabac=1 / ref=5 / deblock=1:0:0 / analyse=0x3:0x133 / me=umh / subme=10 / psy=1 / psy_rd=1.00:0.00 / mixed_ref=1 / me_range=24 / chroma_me=1 / trellis=2 / 8x8dct=1 / cqm=0 / deadzone=21,11 / fast_pskip=1 / chroma_qp_offset=-2 / threads=25 / lookahead_threads=4 / sliced_threads=0 / nr=0 / decimate=1 / interlaced=0 / bluray_compat=0 / stitchable=1 / constrained_intra=0 / bframes=8 / b_pyramid=2 / b_adapt=2 / b_bias=0 / direct=3 / weightb=1 / open_gop=0 / weightp=2 / keyint=250 / keyint_min=24 / scenecut=40 / intra_refresh=0 / rc_lookahead=60 / rc=2pass / mbtree=1 / bitrate=6000 / ratetol=1.0 / qcomp=0.60 / qpmin=0 / qpmax=69 / qpstep=4 / cplxblur=20.0 / qblur=0.5 / vbv_maxrate=6600 / vbv_bufsize=12000 / nal_hrd=none / filler=0 / ip_ratio=1.40 / aq=1:1.00
    Default : Да
    Forced : Нет
    Аудио
    Идентификатор : 2
    Формат : E-AC-3
    Формат/Информация : Enhanced AC-3
    Коммерческое название : Dolby Digital Plus
    Идентификатор кодека : A_EAC3
    Продолжительность : 1 ч. 37 м.
    Вид битрейта : Постоянный
    Битрейт : 256 Кбит/сек
    Каналы : 6 каналов
    Channel layout : L R C LFE Ls Rs
    Частота : 48,0 КГц
    Частота кадров : 31,250 кадров/сек (1536 SPF)
    Метод сжатия : С потерями
    Размер потока : 178 Мбайт (4%)
    Заголовок : [Original | E-AC3 Audio]
    Язык : Russian
    Service kind : Complete Main
    Default : Да
    Forced : Нет
    Показать сообщения:    
    Главная  Кинофильмы  Российские кинофильмы  Фильмы 2011-2022 годов

    Текущее время: 30-Ноя 05:20

    Часовой пояс: UTC + 11



    Вы не можете начинать темы
    Вы не можете отвечать на сообщения
    Вы не можете редактировать свои сообщения
    Вы не можете удалять свои сообщения
    Вы не можете голосовать в опросах
    Вы не можете прикреплять файлы к сообщениям
    Вы не можете скачивать файлы