Уважаемые гости сайта! Добро Пожаловать на наш торрент трекер,где Вы можете бесплатно скачать любой Софт,Фильмы,Музыку и многое другое! А так же постоянно ведется набор модераторов и релизеров. Зарегистрируйтесь сейчас, чтобы получить доступ ко всем функциям. После регистрации или входа на сайт вы сможете создавать темы, отвечать на сообщения и скачивать файлы.

Навигация по Торрент раздачам и Форум и Стол заказов и Группы

 Чёрный Адам / Black Adam (Жауме Кольет-Серра) [2022, фантастика, фэнтези, боевик, приключения, WEB-Rip]

Главная  Кинофильмы  Зарубежные кинофильмы  Новинки (С рекламой)
Статистика раздачи
Нет
 
     
 
 
 
Автор Сообщение
  • Создавать темы 16-Ноя-2022 18:22

    Чёрный Адам | Black Adam
    Год выпуска: 2022
    Страна: США, Канада, Новая Зеландия, Венгрия
    Жанр: фантастика, фэнтези, боевик, приключения
    Продолжительность: 02:04:43
    Cубтитры: Корейские (хардсаб)
    Перевод: Дублированный (Line)
    Реклама: Присутствует баннер
    Режиссер: Жауме Кольет-Серра
    В ролях: Дуэйн Джонсон, Элдис Ходж, Пирс Броснан, Ной Сентинео, Сара Шахи, Куинтесса Суинделл, Марван Кензари, Бодхи Сабонгуй, Мохаммед Амер, Джеймс Мойер
    Описание: 5000 лет назад Чёрный Адам был наделен силами египетских богов и заключён в тюрьму. Теперь он освобождается из своей усыпальницы и готовится явить миру уникальный подход к борьбе за справедливость.
    Качество видео: WEB-Rip
    Формат видео: MKV
    Видео: AVC/H.264, 1920x800, 3195 Kbps, 23.976 fps
    Аудио: АС3, 2 ch, 48 kHz, 384 Kbps | Русский

    MediaInfo

    Общее
    Уникальный идентификатор : 221549364976220151518018012180260397367 (0xA6ACDB09B354149FACBB07F666C52137)
    Полное имя : D:\Чёрный.Адам.2022.WEBRip.[1080p].NNMClub.mkv
    Формат : Matroska
    Версия формата : Version 4
    Размер файла : 3,12 Гбайт
    Продолжительность : 2 ч. 4 м.
    Режим общего битрейта : Переменный
    Общий поток : 3581 Кбит/сек
    Название фильма : Чёрный.Адам.2022.WEBRip.[1080p].NNMClub
    Дата кодирования : UTC 2022-11-16 06:17:11
    Программа кодирования : mkvmerge v8.3.0 ('Over the Horizon') 64bit
    Библиотека кодирования : libebml v1.3.1 + libmatroska v1.4.2
    Видео
    Идентификатор : 1
    Формат : AVC
    Формат/Информация : Advanced Video Codec
    Профиль формата : Main@L4
    Настройки формата : CABAC / 1 Ref Frames
    Параметр CABAC формата : Да
    Параметр RefFrames формата : 1 кадр
    Параметр GOP формата : M=1, N=24
    Идентификатор кодека : V_MPEG4/ISO/AVC
    Продолжительность : 2 ч. 4 м.
    Вид битрейта : Переменный
    Битрейт : 3195 Кбит/сек
    Максимальный битрейт : 3503 Кбит/сек
    Ширина : 1920 пикселей
    Высота : 800 пикселей
    Соотношение сторон : 2,40:1
    Режим частоты кадров : Постоянный
    Частота кадров : 23,976 (24000/1001) кадра/сек
    Цветовое пространство : YUV
    Субдискретизация насыщенности : 4:2:0
    Битовая глубина : 8 бит
    Тип развёртки : Прогрессивная
    Бит/(Пиксели*Кадры) : 0.087
    Размер потока : 2,78 Гбайт (89%)
    Язык : English
    Default : Да
    Forced : Нет
    Аудио
    Идентификатор : 2
    Формат : AC-3
    Формат/Информация : Audio Coding 3
    Коммерческое название : Dolby Digital
    Идентификатор кодека : A_AC3
    Продолжительность : 2 ч. 4 м.
    Вид битрейта : Постоянный
    Битрейт : 384 Кбит/сек
    Каналы : 2 канала
    ChannelLayout : L R
    Частота : 48,0 КГц
    Частота кадров : 31,250 кадров/сек (1536 SPF)
    Битовая глубина : 16 бит
    Метод сжатия : С потерями
    Размер потока : 343 Мбайт (11%)
    Язык : Russian
    ServiceKind/String : Complete Main
    Default : Да
    Forced : Нет

    Скриншоты

      -746

    Создавать темы 21-Ноя-2022 18:04 (спустя 4 дня)

    Топик был перенесен из форума Фильмы 2011-2022 годов в форум Новинки (С рекламой)


    Admin
    Показать сообщения:    
    Главная  Кинофильмы  Зарубежные кинофильмы  Новинки (С рекламой)

    Текущее время: 04-Дек 13:42

    Часовой пояс: UTC + 11



    Вы не можете начинать темы
    Вы не можете отвечать на сообщения
    Вы не можете редактировать свои сообщения
    Вы не можете удалять свои сообщения
    Вы не можете голосовать в опросах
    Вы не можете прикреплять файлы к сообщениям
    Вы не можете скачивать файлы