Уважаемые гости сайта! Добро Пожаловать на наш торрент трекер,где Вы можете бесплатно скачать любой Софт,Фильмы,Музыку и многое другое! А так же постоянно ведется набор модераторов и релизеров. Зарегистрируйтесь сейчас, чтобы получить доступ ко всем функциям. После регистрации или входа на сайт вы сможете создавать темы, отвечать на сообщения и скачивать файлы.

Навигация по Торрент раздачам и Форум и Стол заказов и Группы

 Звёздные войны: Сказания о джедаях / Tales of the Jedi [S01] (2022) WEB-DL 1080p | HDrezka Studio

Главная  Мультфильмы  Мультсериалы
Статистика раздачи
Скачал: [ 1 ]
 
     
 
 
 
Автор Сообщение
  • Создавать темы 12-Ноя-2022 23:59

    Звёздные войны: Сказания о джедаях / Tales of the Jedi
    Производство: США
    Год выпуска: 2022
    Жанр: фантастика, фэнтези, боевик, драма
    Продолжительность: ~ 00:16:00 серия
    Перевод: - Профессиональный (многоголосый закадровый) | HDrezka Studio
    Режиссёр: Натаниэл Вильянуэва
    В ролях: Эшли Экштейн (Ashley Eckstein), Лиам Нисон (Liam Neeson), Брайс Даллас Ховард (Bryce Dallas Howard), Янина Гаванкар (Janina Gavankar)
    Описание: Сериал-антология, каждый эпизод которого рассказывает историю с участием джедаев времён Трилогии приквелов. Шесть эпизодов разбиты на два «пути»: первый рассказывает о различных этапах жизни Асоки Тано, а второй опишет юность графа Дуку до его перехода на Тёмную сторону Силы.

    Качество видео: WEB-DL 1080p
    Формат: MKV
    Видео: AVC, 1920 x 1080 (1.778), 24.000 fps, ~6 569 kbps
    Аудио Rus: AC-3, 48 kHz, 6 ch, 384 kbps |HDrezka Studio|
    Аудио Eng: E-AC-3, 48 kHz, 6 ch, 256 kbps |Original|
    Субтитры: Rus (Forced |HDrezka Studio|, Full |Где тексты, Лебовски?|), Eng (SDH)
    Реклама: Отсутствует
    Релиз: kogesan

    MediaInfo:

    Формат : Matroska
    Версия формата : Version 4
    Размер файла : 873 Мбайт
    Продолжительность : 16 м. 55 с.
    Режим общего битрейта : Переменный
    Общий поток : 7 211 Кбит/сек
    Дата кодирования : UTC 2022-10-26 21:26:21
    Программа кодирования : mkvmerge v71.1.0 ('Fortitude') 64-bit
    Библиотека кодирования : libebml v1.4.4 + libmatroska v1.7.1
    Видео
    Идентификатор : 1
    Формат : AVC
    Формат/Информация : Advanced Video Codec
    Профиль формата : High@L4
    Настройки формата : CABAC / 4 Ref Frames
    Параметр CABAC формата : Да
    Параметр RefFrames формата : 4 кадра
    Идентификатор кодека : V_MPEG4/ISO/AVC
    Продолжительность : 16 м. 55 с.
    Вид битрейта : Переменный
    Битрейт : 6 569 Кбит/сек
    Максимальный битрейт : 12,7 Мбит/сек
    Ширина : 1 920 пикселей
    Высота : 1 080 пикселей
    Соотношение сторон : 16:9
    Режим частоты кадров : Постоянный
    Частота кадров : 24,000 кадра/сек
    Цветовое пространство : YUV
    Субдискретизация насыщенности : 4:2:0
    Битовая глубина : 8 бит
    Тип развёртки : Прогрессивная
    Бит/(Пиксели*Кадры) : 0.132
    Размер потока : 795 Мбайт (91%)
    Язык : English
    Default : Да
    Forced : Нет
    Цветовой диапазон : Limited
    Основные цвета : BT.709
    Характеристики трансфера : BT.709
    Коэффициенты матрицы : BT.709
    Аудио #1
    Идентификатор : 2
    Формат : AC-3
    Формат/Информация : Audio Coding 3
    Коммерческое название : Dolby Digital
    Идентификатор кодека : A_AC3
    Продолжительность : 16 м. 55 с.
    Вид битрейта : Постоянный
    Битрейт : 384 Кбит/сек
    Каналы : 6 каналов
    Channel layout : L R C LFE Ls Rs
    Частота : 48,0 КГц
    Частота кадров : 31,250 кадров/сек (1536 SPF)
    Метод сжатия : С потерями
    Размер потока : 46,5 Мбайт (5%)
    Заголовок : HDr
    Язык : Russian
    Service kind : Complete Main
    Default : Да
    Forced : Нет
    Аудио #2
    Идентификатор : 3
    Формат : E-AC-3
    Формат/Информация : Enhanced AC-3
    Коммерческое название : Dolby Digital Plus
    Идентификатор кодека : A_EAC3
    Продолжительность : 16 м. 55 с.
    Вид битрейта : Постоянный
    Битрейт : 256 Кбит/сек
    Каналы : 6 каналов
    Channel layout : L R C LFE Ls Rs
    Частота : 48,0 КГц
    Частота кадров : 31,250 кадров/сек (1536 SPF)
    Метод сжатия : С потерями
    Размер потока : 31,0 Мбайт (4%)
    Заголовок : Eng
    Язык : English
    Service kind : Complete Main
    Default : Нет
    Forced : Нет
    Текст #1
    Идентификатор : 4
    Формат : UTF-8
    Идентификатор кодека : S_TEXT/UTF8
    Идентификатор кодека/Информация : UTF-8 Plain Text
    Продолжительность : 15 м. 23 с.
    Битрейт : 3 бит/сек
    Частота кадров : 0,009 кадр/сек
    Count of elements : 8
    Размер потока : 382 байт (0%)
    Заголовок : Forc
    Язык : Russian
    Default : Да
    Forced : Нет
    Текст #2
    Идентификатор : 5
    Формат : UTF-8
    Идентификатор кодека : S_TEXT/UTF8
    Идентификатор кодека/Информация : UTF-8 Plain Text
    Продолжительность : 15 м. 18 с.
    Битрейт : 14 бит/сек
    Частота кадров : 0,042 кадр/сек
    Count of elements : 39
    Размер потока : 1,67 Кбайт (0%)
    Заголовок : Rus
    Язык : Russian
    Default : Нет
    Forced : Нет
    Текст #3
    Идентификатор : 6
    Формат : UTF-8
    Идентификатор кодека : S_TEXT/UTF8
    Идентификатор кодека/Информация : UTF-8 Plain Text
    Продолжительность : 14 м. 58 с.
    Битрейт : 8 бит/сек
    Частота кадров : 0,040 кадр/сек
    Count of elements : 36
    Размер потока : 918 байт (0%)
    Заголовок : Eng
    Язык : English
    Default : Нет
    Forced : Нет
    Текст #4
    Идентификатор : 7
    Формат : UTF-8
    Идентификатор кодека : S_TEXT/UTF8
    Идентификатор кодека/Информация : UTF-8 Plain Text
    Продолжительность : 15 м. 36 с.
    Битрейт : 16 бит/сек
    Частота кадров : 0,116 кадр/сек
    Count of elements : 109
    Размер потока : 1,91 Кбайт (0%)
    Заголовок : SDH
    Язык : English
    Default : Нет
    Forced : Нет
    Меню
    00:02:23.167 : en:Intro
    00:02:29.708 : en:Scene 1
    00:16:14.833 : en:Credits

    Скриншоты:



    _________________
    Показать сообщения:    
    Главная  Мультфильмы  Мультсериалы

    Текущее время: 28-Янв 12:17

    Часовой пояс: UTC + 11



    Вы не можете начинать темы
    Вы не можете отвечать на сообщения
    Вы не можете редактировать свои сообщения
    Вы не можете удалять свои сообщения
    Вы не можете голосовать в опросах
    Вы не можете прикреплять файлы к сообщениям
    Вы не можете скачивать файлы