Уважаемые гости сайта! Добро Пожаловать на наш торрент трекер,где Вы можете бесплатно скачать любой Софт,Фильмы,Музыку и многое другое! А так же постоянно ведется набор модераторов и релизеров. Зарегистрируйтесь сейчас, чтобы получить доступ ко всем функциям. После регистрации или входа на сайт вы сможете создавать темы, отвечать на сообщения и скачивать файлы.

Навигация по Торрент раздачам и Форум и Стол заказов и Группы

 Киберпанк: Бегущие по краю / Cyberpunk: Edgerunners [S01] (2022) WEBRip-HEVC 1080p | HDR | AniLibria

Главная  Аниме  Сериалы  Аниме Сериалы (HD)
Статистика раздачи
Нет
 
     
 
 
 
Автор Сообщение
  • Создавать темы 12-Ноя-2022 18:37

    Информация о фильме:
    Название: Киберпанк: Бегущие по краю
    Оригинальное название: Cyberpunk: Edgerunners
    Год выхода: 2022
    Жанр: аниме, мультфильм, фантастика, боевик
    Режиссер: Хироюки Имаиси
    В ролях: Кэнъитиро Охаси, Аои Юки, Кэндзиро Цуда, Кадзухико Иноуэ, Ватару Такаги, Хироки Тоти, Томоё Куросава, Такако Хонда, Митико Кайдэн, Юрика Хино
    О фильме:
    «Киберпанк: Бегущие по краю» — аниме-сериал, разработанный японской анимационной студией Trigger для платформы Netflix. Сериал основан на популярной видеоигре Cyberpunk 2077, вышедшей в 2020 году. Десятисерийное шоу получило мгновенное признание критиков и аудитории, оценивших невероятно динамичную анимацию, дизайн персонажей и, конечно, сюжет, разворачивающийся в антиутопическом мире с высокоразвитыми технологиями.

    Страна: Япония
    Студия: CD Projekt RED, Trigger
    Продолжительность: ~00:25:00 серия
    Перевод: Любительский (многоголосый закадровый) AniLibria
    Файл:
    Кодек: 1920x1080 / ~3500 kbps / 10bit / 23.976 fps / HEVC / HDR
    Качество: WEBRip-HEVC 1080p | HDR
    Звук: AC3 / 2.0 / 48 kHz / 192 kbps / 16 bit AniLibria
    Звук: AC3 / 5.1 / 48 kHz / 640 kbps / 16 bit English
    Субтитры: Русские, Английские
    ВАЖНО: Озвучка содержит ненормативную лексику, 18+.

    MediaInfo

    General
    Unique ID : 232948125559136348566093383507755856956 (0xAF402D532B7E01DA9C1244225042F43C)
    Complete name : D:Cyberpunk Edgerunners (1080p HEVC) 1 - Let You Down.mkv
    Format : Matroska
    Format version : Version 4
    File size : 721 MiB
    Duration : 25 min 36 s
    Overall bit rate : 3 935 kb/s
    Movie name : 01 - Let You Down
    Encoded date : UTC 2022-09-24 09:03:32
    Writing application : mkvmerge v8.3.0 ('Over the Horizon') 64bit
    Writing library : libebml v1.3.1 + libmatroska v1.4.2
    Video
    ID : 1
    Format : HEVC
    Format/Info : High Efficiency Video Coding
    Format profile : Main 10@L4@Main
    HDR format : SMPTE ST 2086, HDR10 compatible
    Codec ID : V_MPEGH/ISO/HEVC
    Duration : 24 min 10 s
    Bit rate : 3 286 kb/s
    Width : 1 920 pixels
    Height : 1 080 pixels
    Display aspect ratio : 16:9
    Frame rate mode : Constant
    Frame rate : 23.976 (24000/1001) FPS
    Color space : YUV
    Chroma subsampling : 4:2:0 (Type 2)
    Bit depth : 10 bits
    Bits/(Pixel*Frame) : 0.066
    Stream size : 568 MiB (79%)
    Default : Yes
    Forced : No
    Color range : Limited
    Color primaries : BT.2020
    Transfer characteristics : PQ
    Matrix coefficients : BT.2020 non-constant
    Mastering display color pri : Display P3
    Mastering display luminance : min: 0.0001 cd/m2, max: 1000 cd/m2
    Maximum Content Light Level : 966 cd/m2
    Maximum Frame-Average Light : 522 cd/m2
    Audio #1
    ID : 2
    Format : AC-3
    Format/Info : Audio Coding 3
    Commercial name : Dolby Digital
    Codec ID : A_AC3
    Duration : 25 min 36 s
    Bit rate mode : Constant
    Bit rate : 192 kb/s
    Channel(s) : 2 channels
    Channel layout : L R
    Sampling rate : 48.0 kHz
    Frame rate : 31.250 FPS (1536 SPF)
    Compression mode : Lossy
    Stream size : 35.2 MiB (5%)
    Title : AniLibria [UNCENSORED]
    Language : Russian
    Service kind : Complete Main
    Default : Yes
    Forced : Yes
    Audio #2
    ID : 3
    Format : E-AC-3
    Format/Info : Enhanced AC-3
    Commercial name : Dolby Digital Plus
    Codec ID : A_EAC3
    Duration : 25 min 36 s
    Bit rate mode : Constant
    Bit rate : 640 kb/s
    Channel(s) : 6 channels
    Channel layout : L R C LFE Ls Rs
    Sampling rate : 48.0 kHz
    Frame rate : 31.250 FPS (1536 SPF)
    Compression mode : Lossy
    Stream size : 117 MiB (16%)
    Language : English
    Service kind : Complete Main
    Default : No
    Forced : No
    Text #1
    ID : 4
    Format : ASS
    Codec ID : S_TEXT/ASS
    Codec ID/Info : Advanced Sub Station Alpha
    Duration : 22 min 39 s
    Bit rate : 194 b/s
    Count of elements : 351
    Compression mode : Lossless
    Stream size : 32.3 KiB (0%)
    Language : Russian
    Default : No
    Forced : No
    Text #2
    ID : 5
    Format : UTF-8
    Codec ID : S_TEXT/UTF8
    Codec ID/Info : UTF-8 Plain Text
    Duration : 23 min 48 s
    Bit rate : 92 b/s
    Count of elements : 420
    Stream size : 16.1 KiB (0%)
    Language : English
    Default : No
    Forced : No

    Скриншоты

    Показать сообщения:    
    Главная  Аниме  Сериалы  Аниме Сериалы (HD)

    Текущее время: 04-Дек 12:14

    Часовой пояс: UTC + 11



    Вы не можете начинать темы
    Вы не можете отвечать на сообщения
    Вы не можете редактировать свои сообщения
    Вы не можете удалять свои сообщения
    Вы не можете голосовать в опросах
    Вы не можете прикреплять файлы к сообщениям
    Вы не можете скачивать файлы