Уважаемые гости сайта! Добро Пожаловать на наш торрент трекер,где Вы можете бесплатно скачать любой Софт,Фильмы,Музыку и многое другое! А так же постоянно ведется набор модераторов и релизеров. Зарегистрируйтесь сейчас, чтобы получить доступ ко всем функциям. После регистрации или входа на сайт вы сможете создавать темы, отвечать на сообщения и скачивать файлы.

Навигация по Торрент раздачам и Форум и Стол заказов и Группы

 Энола Холмс 2 / Enola Holmes 2 (2022) WEB-DLRip-AVC от DoMiNo & селезень | P | NewComers

Главная  Кинофильмы  Зарубежные кинофильмы  Фильмы 2011-2022 годов
Статистика раздачи
Нет
 
     
 
 
 
Автор Сообщение
  • Создавать темы 05-Ноя-2022 22:01

    Информация о фильме
    Название: Энола Холмс 2
    Оригинальное название: Enola Holmes 2
    Год выхода: 2022
    Жанр: Приключения, детектив, криминал
    Режиссер: Гарри Брэдбир
    В ролях: Милли Бобби Браун, Генри Кавилл, Дэвид Тьюлис, Луис Патридж, Сьюзан Уокома, Адиль Ахтар, Шэрон Дункан-Брюстер, Хелена Бонем Картер, София Ставриноу, Джон Паршалл и другие.
    О фильме:
    Энола Холмс берется за первое дело в качестве профессионального детектива. Но, чтобы разгадать тайну пропавшей девочки, ей понадобится помощь друзей и брата Шерлока.

    Страна: США
    Студия: Legendary Pictures, Netflix, PCMA Productions, Warner Bros.
    Продолжительность: 02:10:47
    Перевод: Профессиональный (многоголосый, закадровый) | NewComers
    Субтитры: Русские (Forced, Full), английские (Full, SDH)
    Файл
    Формат: Matroska
    Качество: WEB-DLRip-AVC
    Видео: 1024x426 at 24.000 fps, x264@L4.1, ~1353 kbps
    Аудио 1: AC3, 6 ch, ~448 kbps - | Русский |
    Аудио 2: AC3, 6 ch, ~448 kbps - | Английский |
    Формат субтитров: softsub (SRT)
    ***Рип от: -=DoMiNo=-

    Скриншоты


    M/I

    General
    Unique ID : 28610021118862075306043508563786658397 (0x158616F2880F63C04653DA878598F25D)
    Complete name : K:Enola.Holmes.2.2022.NF.WEB-DLRip.x264.seleZen.mkv
    Format : Matroska
    Format version : Version 4
    File size : 2.06 GiB
    Duration : 2 h 10 min
    Overall bit rate : 2 250 kb/s
    Movie name : Enola.Holmes.2.2022.NF.WEB-DLRip.x264.seleZen
    Encoded date : UTC 2022-11-05 07:02:40
    Writing application : mkvmerge v71.0.0 ('Altitude') 64-bit
    Writing library : libebml v1.4.4 + libmatroska v1.7.1
    Cover : Yes
    Attachments : cover.jpg / small_cover.jpg
    Video
    ID : 1
    Format : AVC
    Format/Info : Advanced Video Codec
    Format profile : High@L4.1
    Format settings : CABAC / 12 Ref Frames
    Format settings, CABAC : Yes
    Format settings, Reference : 12 frames
    Codec ID : V_MPEG4/ISO/AVC
    Duration : 2 h 10 min
    Bit rate : 1 353 kb/s
    Width : 1 024 pixels
    Height : 426 pixels
    Display aspect ratio : 2.40:1
    Frame rate mode : Constant
    Frame rate : 24.000 FPS
    Color space : YUV
    Chroma subsampling : 4:2:0
    Bit depth : 8 bits
    Scan type : Progressive
    Bits/(Pixel*Frame) : 0.129
    Stream size : 1.24 GiB (60%)
    Title : -=DoMiNo=-
    Writing library : x264 core 164 r3099+55M 141af3f t_mod_New | by -=DoMiNo=- | X86_64
    Encoding settings : cabac=1 / ref=12 / deblock=1:-3:-2 / analyse=0x3:0x133 / me=umh / subme=10 / psy=1 / fade_compensate=0.00 / psy_rd=1.10:0.00 / mixed_ref=1 / me_range=32 / chroma_me=1 / trellis=2 / 8x8dct=1 / cqm=0 / deadzone=21,11 / fast_pskip=0 / chroma_qp_offset=-2 / threads=13 / lookahead_threads=3 / sliced_threads=0 / nr=0 / decimate=1 / interlaced=0 / bluray_compat=0 / constrained_intra=0 / fgo=0 / bframes=12 / b_pyramid=2 / b_adapt=2 / b_bias=0 / direct=1 / weightb=1 / open_gop=0 / weightp=2 / keyint=250 / keyint_min=24 / scenecut=40 / intra_refresh=0 / rc_lookahead=60 / rc=crf / mbtree=0 / crf=18.5000 / qcomp=0.65 / qpmin=0:0:0 / qpmax=69:69:69 / qpstep=4 / vbv_maxrate=50000 / vbv_bufsize=62500 / crf_max=0.0 / nal_hrd=none / filler=0 / ip_ratio=1.35 / pb_ratio=1.25 / aq=3:0.90 / aq-sensitivity=10.00 / aq-factor=1.00:1.00:1.00 / aq2=0 / aq3=0
    Language : English
    Default : Yes
    Forced : No
    Color range : Limited
    Matrix coefficients : BT.709
    Audio #1
    ID : 2
    Format : AC-3
    Format/Info : Audio Coding 3
    Commercial name : Dolby Digital
    Codec ID : A_AC3
    Duration : 2 h 10 min
    Bit rate mode : Constant
    Bit rate : 448 kb/s
    Channel(s) : 6 channels
    Channel layout : L R C LFE Ls Rs
    Sampling rate : 48.0 kHz
    Frame rate : 31.250 FPS (1536 SPF)
    Compression mode : Lossy
    Stream size : 420 MiB (20%)
    Title : MVO_[Newcomers]
    Language : Russian
    Service kind : Complete Main
    Default : Yes
    Forced : No
    Audio #2
    ID : 3
    Format : AC-3
    Format/Info : Audio Coding 3
    Commercial name : Dolby Digital
    Codec ID : A_AC3
    Duration : 2 h 10 min
    Bit rate mode : Constant
    Bit rate : 448 kb/s
    Channel(s) : 6 channels
    Channel layout : L R C LFE Ls Rs
    Sampling rate : 48.0 kHz
    Frame rate : 31.250 FPS (1536 SPF)
    Compression mode : Lossy
    Stream size : 420 MiB (20%)
    Title : Original
    Language : English
    Service kind : Complete Main
    Default : No
    Forced : No
    Text #1
    ID : 4
    Format : UTF-8
    Codec ID : S_TEXT/UTF8
    Codec ID/Info : UTF-8 Plain Text
    Duration : 2 h 3 min
    Bit rate : 2 b/s
    Count of elements : 67
    Stream size : 2.66 KiB (0%)
    Title : Forced
    Language : Russian
    Default : Yes
    Forced : No
    Text #2
    ID : 5
    Format : UTF-8
    Codec ID : S_TEXT/UTF8
    Codec ID/Info : UTF-8 Plain Text
    Duration : 2 h 8 min
    Bit rate : 83 b/s
    Count of elements : 1657
    Stream size : 78.6 KiB (0%)
    Title : Full
    Language : Russian
    Default : No
    Forced : No
    Text #3
    ID : 6
    Format : UTF-8
    Codec ID : S_TEXT/UTF8
    Codec ID/Info : UTF-8 Plain Text
    Duration : 2 h 2 min
    Bit rate : 56 b/s
    Count of elements : 1650
    Stream size : 50.2 KiB (0%)
    Title : Full
    Language : English
    Default : No
    Forced : No
    Text #4
    ID : 7
    Format : UTF-8
    Codec ID : S_TEXT/UTF8
    Codec ID/Info : UTF-8 Plain Text
    Duration : 2 h 8 min
    Bit rate : 68 b/s
    Count of elements : 2169
    Stream size : 64.1 KiB (0%)
    Title : SDH
    Language : English
    Default : No
    Forced : No
    Menu
    00:00:00.000 : en:Глава 01
    00:15:00.000 : en:Глава 02
    00:30:00.000 : en:Глава 03
    00:45:00.000 : en:Глава 04
    01:00:00.000 : en:Глава 05
    01:15:00.000 : en:Глава 06
    01:30:00.000 : en:Глава 07
    01:45:00.000 : en:Глава 08
    02:00:00.000 : en:Глава 09
    Релиз: Присоединяйся к: Кликай на баннеры.
    Показать сообщения:    
    Главная  Кинофильмы  Зарубежные кинофильмы  Фильмы 2011-2022 годов

    Текущее время: 04-Дек 13:40

    Часовой пояс: UTC + 11



    Вы не можете начинать темы
    Вы не можете отвечать на сообщения
    Вы не можете редактировать свои сообщения
    Вы не можете удалять свои сообщения
    Вы не можете голосовать в опросах
    Вы не можете прикреплять файлы к сообщениям
    Вы не можете скачивать файлы