Уважаемые гости сайта! Добро Пожаловать на наш торрент трекер,где Вы можете бесплатно скачать любой Софт,Фильмы,Музыку и многое другое! А так же постоянно ведется набор модераторов и релизеров. Зарегистрируйтесь сейчас, чтобы получить доступ ко всем функциям. После регистрации или входа на сайт вы сможете создавать темы, отвечать на сообщения и скачивать файлы.

Навигация по Торрент раздачам и Форум и Стол заказов и Группы

 Даркнет [S01] (2022) WEB-DL 1080p

Главная  Сериалы  Российские сериалы
Статистика раздачи
Скачал: [ 1 ]
 
     
 
 
 
Автор Сообщение
  • Создавать темы 04-Ноя-2022 12:56

    Информация о сериале
    Название: Даркнет
    Год выхода: 2022
    Жанр: Боевик, драма, научная фантастика
    Режиссер: Динар Гарипов
    В ролях: Анатолий Белый, Павел Деревянко, Артём Ткаченко, Равшана Куркова, Сергей Юшкевич, Даниил Вахрушев, Оскар Кучера, Анастасия Акатова, Валентина Ляпина, Алексей Золотовицкий
    О сериале: В будущем весь мир будет разделен на виртуальный и реальный, и многие предпочтут интернет-пространство, в котором можно прожить альтернативную судьбу. В этом мире запретное становится возможным. Наркотики, секс, торговля оружием и людьми – в Даркнете можно всё. Даже умереть. За зрелищным сюжетом, яркими героями и мире вседозволенности стоят простые, но важные человеческие ценности. Это размышления о нашем возможном будущем и будущем интернета.

    Страна: Россия
    Студия: LAZYDOG production по заказу IVI ORIGINALS
    Продолжительность: 8 х ~ 00:25:04
    Файл
    Формат: MKV
    Качество: WEB-DL 1080p
    Видео: MPEG-4 AVC, ~ 5120 Кбит/с, 1920x1080
    Аудио #01: AC3, 6 ch, 384 Кбит/с
    Аудио #02: AAC, 6 ch, 512 Кбит/с
    Язык: Русский
    Субтитры: Отсутствуют

    Скриншоты

    MI

    General
    Unique ID : 154232221046953807654561815997836227827 (0x74080B98264937CB649B01DA1900F4F3)
    Complete name : Darknet.S01.WEB-DL.1080.25KuzmichDarknet.s01.e01.WEB-DL.1080.25Kuzmich.mkv
    Format : Matroska
    Format version : Version 4
    File size : 1.06 GiB
    Duration : 25 min 6 s
    Overall bit rate : 6 015 kb/s
    Encoded date : UTC 2022-11-03 22:55:31
    Writing application : mkvmerge v71.1.0 ('Fortitude') 64-bit
    Writing library : libebml v1.4.4 + libmatroska v1.7.1
    Cover : Yes
    Attachments : cover (07).jpg
    Video
    ID : 1
    Format : AVC
    Format/Info : Advanced Video Codec
    Format profile : High@L4
    Format settings : CABAC / 4 Ref Frames
    Format settings, CABAC : Yes
    Format settings, Reference : 4 frames
    Codec ID : V_MPEG4/ISO/AVC
    Duration : 25 min 6 s
    Bit rate : 5 120 kb/s
    Width : 1 920 pixels
    Height : 1 080 pixels
    Display aspect ratio : 16:9
    Frame rate mode : Constant
    Frame rate : 25.000 FPS
    Color space : YUV
    Chroma subsampling : 4:2:0
    Bit depth : 8 bits
    Scan type : Progressive
    Bits/(Pixel*Frame) : 0.099
    Stream size : 919 MiB (85%)
    Writing library : x264 core 152 r2854 e9a5903
    Encoding settings : cabac=1 / ref=3 / deblock=1:0:0 / analyse=0x3:0x113 / me=hex / subme=7 / psy=1 / psy_rd=1.00:0.00 / mixed_ref=1 / me_range=16 / chroma_me=1 / trellis=1 / 8x8dct=1 / cqm=0 / deadzone=21,11 / fast_pskip=1 / chroma_qp_offset=-2 / threads=34 / lookahead_threads=5 / sliced_threads=0 / nr=0 / decimate=1 / interlaced=0 / bluray_compat=0 / constrained_intra=0 / bframes=6 / b_pyramid=2 / b_adapt=1 / b_bias=0 / direct=1 / weightb=1 / open_gop=0 / weightp=2 / keyint=50 / keyint_min=26 / scenecut=0 / intra_refresh=0 / rc_lookahead=40 / rc=2pass / mbtree=1 / bitrate=5120 / ratetol=1.0 / qcomp=0.60 / qpmin=0 / qpmax=69 / qpstep=4 / cplxblur=20.0 / qblur=0.5 / vbv_maxrate=7680 / vbv_bufsize=20480 / nal_hrd=none / filler=0 / ip_ratio=1.40 / aq=1:1.00
    Default : Yes
    Forced : No
    Audio #1
    ID : 2
    Format : AC-3
    Format/Info : Audio Coding 3
    Commercial name : Dolby Digital
    Codec ID : A_AC3
    Duration : 25 min 6 s
    Bit rate mode : Constant
    Bit rate : 384 kb/s
    Channel(s) : 6 channels
    Channel layout : L R C LFE Ls Rs
    Sampling rate : 48.0 kHz
    Frame rate : 31.250 FPS (1536 SPF)
    Compression mode : Lossy
    Stream size : 69.0 MiB (6%)
    Language : Russian
    Service kind : Complete Main
    Default : Yes
    Forced : No
    Audio #2
    ID : 3
    Format : AAC LC
    Format/Info : Advanced Audio Codec Low Complexity
    Codec ID : A_AAC-2
    Duration : 25 min 6 s
    Bit rate : 512 kb/s
    Channel(s) : 6 channels
    Channel layout : C L R Ls Rs LFE
    Sampling rate : 48.0 kHz
    Frame rate : 46.875 FPS (1024 SPF)
    Compression mode : Lossy
    Stream size : 92.0 MiB (9%)
    Language : Russian
    Default : Yes
    Forced : No
    Показать сообщения:    
    Главная  Сериалы  Российские сериалы

    Текущее время: 04-Дек 13:13

    Часовой пояс: UTC + 11



    Вы не можете начинать темы
    Вы не можете отвечать на сообщения
    Вы не можете редактировать свои сообщения
    Вы не можете удалять свои сообщения
    Вы не можете голосовать в опросах
    Вы не можете прикреплять файлы к сообщениям
    Вы не можете скачивать файлы