Уважаемые гости сайта! Добро Пожаловать на наш торрент трекер,где Вы можете бесплатно скачать любой Софт,Фильмы,Музыку и многое другое! А так же постоянно ведется набор модераторов и релизеров. Зарегистрируйтесь сейчас, чтобы получить доступ ко всем функциям. После регистрации или входа на сайт вы сможете создавать темы, отвечать на сообщения и скачивать файлы.

Навигация по Торрент раздачам и Форум и Стол заказов и Группы

 Рик и Морти / Rick and Morty [06x01-08 из 10] (Пит Мишелс, Брайан Ньютон, Джон Райс) [2022, мультфильм, комедия, фантастика, приключения, WEB-DL 1080p]

Главная  Мультфильмы  Мультсериалы
Статистика раздачи
Скачал: [ 1 ]
 
     
 
 
 
Автор Сообщение
  • Создавать темы 12-Окт-2022 08:56

    Рик и Морти | Rick and Morty
    Год выпуска: 2022
    Страна: США
    Студия: Harmonius Claptrap, Starburns Industries, Williams Street
    Жанр: мультфильм, комедия, фантастика, приключения
    Продолжительность: ~00:22:00 серия
    Cубтитры: Russian (Full |Netflix|), English (Full, SDH)
    Перевод: Профессиональный (одноголосый, закадровый) Сыендук
    Режиссер: Пит Мишелс, Брайан Ньютон, Джон Райс
    В ролях: Джастин Ройланд, Крис Парнелл, Спенсер Грэммер, Сара Чок, Кари Уолгрен, Том Кенни, Райан Ридли, Морис ЛаМарш, Дэн Хармон, Брэндон Джонсон
    Описание: В центре сюжета — школьник по имени Морти и его дедушка Рик. Морти — самый обычный мальчик, который ничем не отличается от своих сверстников. А вот его дедуля занимается необычными научными исследованиями и зачастую полностью неадекватен. Он может в любое время дня и ночи схватить внука и отправиться вместе с ним в межпространственные приключения с помощью построенной из разного хлама летающей тарелки, которая способна перемещаться сквозь временной тоннель. Каждый раз эта парочка оказывается в самых неожиданных местах и самых нелепых ситуациях.
    Качество видео: WEB-DL 1080p
    Формат видео: MKV
    Видео: 1920x1080 at 23.976 fps, MPEG4-AVC, ~8250 kbps avg
    Аудио: Russian: 48 kHz, E-AC3, 3/2 (L,C,R,l,r) + LFE ch, ~640 kbps avg

    MediaInfo

    General
    Unique ID : 19322144420172012591918199581512736746 (0xE894F4568E3F37CD0933FCA3C569FEA)
    Complete name : Rick.and.Morty.S06E01.Solaricks.1080p.HMAX.WEB-DL.RUS-ENG.mkv
    Format : Matroska
    Format version : Version 4
    File size : 1.48 GiB
    Duration : 22 min 25 s
    Overall bit rate mode : Variable
    Overall bit rate : 9 461 kb/s
    Encoded date : UTC 2022-09-12 21:22:21
    Writing application : mkvmerge v49.0.0 ('Sick Of Losing Soulmates') 64-bit
    Writing library : libebml v1.4.0 + libmatroska v1.6.1
    Video
    ID : 1
    Format : AVC
    Format/Info : Advanced Video Codec
    Format profile : High@L4
    Format settings : CABAC / 4 Ref Frames
    Format settings, CABAC : Yes
    Format settings, Reference fra : 4 frames
    Codec ID : V_MPEG4/ISO/AVC
    Duration : 22 min 25 s
    Bit rate mode : Variable
    Bit rate : 8 250 kb/s
    Maximum bit rate : 12.4 Mb/s
    Width : 1 920 pixels
    Height : 1 080 pixels
    Display aspect ratio : 16:9
    Frame rate mode : Constant
    Frame rate : 23.976 (24000/1001) FPS
    Color space : YUV
    Chroma subsampling : 4:2:0
    Bit depth : 8 bits
    Scan type : Progressive
    Bits/(Pixel*Frame) : 0.166
    Stream size : 1.28 GiB (86%)
    Writing library : x264 core 157 r2965 861cec4
    Encoding settings : cabac=1 / ref=4 / deblock=1:0:0 / analyse=0x3:0x113 / me=hex / subme=7 / psy=1 / psy_rd=1.00:0.00 / mixed_ref=1 / me_range=16 / chroma_me=1 / trellis=1 / 8x8dct=1 / cqm=0 / deadzone=21,11 / fast_pskip=1 / chroma_qp_offset=-2 / threads=34 / lookahead_threads=5 / sliced_threads=0 / nr=0 / decimate=1 / interlaced=0 / bluray_compat=0 / constrained_intra=0 / bframes=3 / b_pyramid=2 / b_adapt=1 / b_bias=0 / direct=1 / weightb=1 / open_gop=0 / weightp=2 / keyint=96 / keyint_min=96 / scenecut=40 / intra_refresh=0 / rc_lookahead=40 / rc=2pass / mbtree=1 / bitrate=8250 / ratetol=1.0 / qcomp=0.60 / qpmin=0 / qpmax=69 / qpstep=4 / cplxblur=20.0 / qblur=0.5 / vbv_maxrate=12375 / vbv_bufsize=6187 / nal_hrd=vbr / filler=0 / ip_ratio=1.40 / aq=1:1.00
    Default : Yes
    Forced : No
    Color range : Limited
    Color primaries : BT.709
    Transfer characteristics : BT.709
    Matrix coefficients : BT.709
    Audio #1
    ID : 2
    Format : E-AC-3
    Format/Info : Enhanced AC-3
    Commercial name : Dolby Digital Plus
    Codec ID : A_EAC3
    Duration : 22 min 25 s
    Bit rate mode : Constant
    Bit rate : 640 kb/s
    Channel(s) : 6 channels
    Channel layout : L R C LFE Ls Rs
    Sampling rate : 48.0 kHz
    Frame rate : 31.250 FPS (1536 SPF)
    Compression mode : Lossy
    Stream size : 103 MiB (7%)
    Language : Russian
    Service kind : Complete Main
    Default : Yes
    Forced : No
    Audio #2
    ID : 3
    Format : E-AC-3
    Format/Info : Enhanced AC-3
    Commercial name : Dolby Digital Plus
    Codec ID : A_EAC3
    Duration : 22 min 25 s
    Bit rate mode : Constant
    Bit rate : 640 kb/s
    Channel(s) : 6 channels
    Channel layout : L R C LFE Ls Rs
    Sampling rate : 48.0 kHz
    Frame rate : 31.250 FPS (1536 SPF)
    Compression mode : Lossy
    Stream size : 103 MiB (7%)
    Language : English
    Service kind : Complete Main
    Default : No
    Forced : No
    Text #1
    ID : 4
    Format : UTF-8
    Codec ID : S_TEXT/UTF8
    Codec ID/Info : UTF-8 Plain Text
    Duration : 22 min 18 s
    Bit rate : 169 b/s
    Count of elements : 446
    Stream size : 27.6 KiB (0%)
    Language : Russian
    Default : No
    Forced : No
    Text #2
    ID : 5
    Format : UTF-8
    Codec ID : S_TEXT/UTF8
    Codec ID/Info : UTF-8 Plain Text
    Duration : 22 min 15 s
    Bit rate : 107 b/s
    Count of elements : 552
    Stream size : 17.5 KiB (0%)
    Language : English
    Default : No
    Forced : No
    Text #3
    ID : 6
    Format : UTF-8
    Codec ID : S_TEXT/UTF8
    Codec ID/Info : UTF-8 Plain Text
    Duration : 22 min 15 s
    Bit rate : 113 b/s
    Count of elements : 601
    Stream size : 18.5 KiB (0%)
    Title : SDH
    Language : English
    Default : No
    Forced : No
    Menu
    00:00:00.000 : en:Chapter 1
    00:01:47.482 : en:Intro
    00:02:15.136 : en:Chapter 2
    00:11:44.578 : en:Chapter 3
    00:20:53.000 : en:Credits

    Скриншоты



    Последний раз редактировалось: Rocky (2022-11-29 20:00), всего редактировалось 2 раз(а)

      -746

    Создавать темы 13-Ноя-2022 00:05 (спустя 1 месяц)

    Топик был перенесен из форума Мультфильмы 2011-2022 годов в форум Мультсериалы


    Admin
    Показать сообщения:    
    Главная  Мультфильмы  Мультсериалы

    Текущее время: 04-Дек 12:09

    Часовой пояс: UTC + 11



    Вы не можете начинать темы
    Вы не можете отвечать на сообщения
    Вы не можете редактировать свои сообщения
    Вы не можете удалять свои сообщения
    Вы не можете голосовать в опросах
    Вы не можете прикреплять файлы к сообщениям
    Вы не можете скачивать файлы