Уважаемые гости сайта! Добро Пожаловать на наш торрент трекер,где Вы можете бесплатно скачать любой Софт,Фильмы,Музыку и многое другое! А так же постоянно ведется набор модераторов и релизеров. Зарегистрируйтесь сейчас, чтобы получить доступ ко всем функциям. После регистрации или входа на сайт вы сможете создавать темы, отвечать на сообщения и скачивать файлы.

Навигация по Торрент раздачам и Форум и Стол заказов и Группы

 Детство Шелдона / Юный Шелдон / Young Sheldon / Сезон: 3 / Серии: 1-21 из 21 (Джаффар Махмуд) [2019, США, Комедия, WEB-DL 1080p] MVO (NewStudio) + Original (Eng)

Главная  Сериалы  Американские и Европейские сериалы
Статистика раздачи
Нет
 
     
 
 
 
Автор Сообщение
  • Создавать темы 30-Ноя-2022 05:41

    Детство Шелдона | Юный Шелдон | Young Sheldon
    «***»
    - Производство: США
    Год выпуска: 2019
    Жанр: комедия
    Продолжительность: ~ 00:19:00 серия-Перевод: Профессиональный (многоголосый закадровый) | NewStudio-Режиссёр: Джаффар Махмуд, Алекс Рейд, Марк Сендроуски-В ролях: Марсия Энн Бёррс, Док Фэрроу, Рекс Линн, Уайатт МакКлюр, Брайан Степанек-Описание:
    История о непростом детстве вундеркинда Шелдона Купера. Родители юного гения не разделяют увлечения сына наукой: его мать очень религиозна, а отец, бывший футбольный тренер, предпочитает проводить вечера в компании пива и телевизора. Со сверстниками тоже не ладится, ведь Шелдона куда больше детских игрушек интересует, где можно взять обогащённый уран для научных экспериментов.---Качество видео: WEB-DL 1080p
    Формат: MKV
    Видео: AVC, 1912 x 1072 (1.784), 23.976 fps, ~5222 kbps
    Аудио Rus: AC-3, 48 kHz, 6 ch, 384 kbps |NewStudio|
    Аудио Eng: AC-3, 48 kHz, 6 ch, 384 kbps |Original|
    Субтитры: Rus (forced) (Серии: 1, 2, 4, 6, 8, 10, 11, 13, 16, 17, 19)
    Реклама: Отсутствует
    -

    MediaInfo:

    Общее
    Уникальный идентификатор : 87486614330309618866570781608631356583 (0x41D14F1C67BFFFE5108E8AD8E6544CA7)
    Полное имя : E:\\_Сериалы\\_Сериалы\\Юный Шелдон\\Young.Sheldon.s03.WEBDL.1080p.NewStudio\\Young.Sheldon.s03e01.WEBDL.1080p.NewStudio.mkv
    Формат : Matroska
    Версия формата : Version 4
    Размер файла : 832 Мбайт
    Продолжительность : 19 м. 24 с.
    Общий поток : 5993 Кбит/сек
    Дата кодирования : UTC 2019-10-02 14:31:03
    Программа кодирования : mkvmerge v37.0.0 ('Leave It') 64-bit
    Библиотека кодирования : libebml v1.3.9 + libmatroska v1.5.2
    Видео
    Идентификатор : 1
    Формат : AVC
    Формат/Информация : Advanced Video Codec
    Профиль формата : High@L4
    Настройки формата : CABAC / 4 Ref Frames
    Параметр CABAC формата : Да
    Параметр RefFrames формата : 4 кадра
    Идентификатор кодека : V_MPEG4/ISO/AVC
    Продолжительность : 19 м. 24 с.
    Битрейт : 5222 Кбит/сек
    Ширина : 1912 пикселей
    Высота : 1072 пикселя
    Соотношение сторон : 16:9
    Режим частоты кадров : Постоянный
    Частота кадров : 23,976 (23976/1000) кадра/сек
    Цветовое пространство : YUV
    Субдискретизация насыщенности : 4:2:0
    Битовая глубина : 8 бит
    Тип развёртки : Прогрессивная
    Бит/(Пиксели*Кадры) : 0.106
    Размер потока : 725 Мбайт (87%)
    Язык : English
    Default : Да
    Forced : Нет
    Цветовой диапазон : Limited
    Основные цвета : BT.709
    Характеристики трансфера : BT.709
    Коэффициенты матрицы : BT.709
    Аудио #1
    Идентификатор : 2
    Формат : AC-3
    Формат/Информация : Audio Coding 3
    Коммерческое название : Dolby Digital
    Идентификатор кодека : A_AC3
    Продолжительность : 19 м. 24 с.
    Вид битрейта : Постоянный
    Битрейт : 384 Кбит/сек
    Каналы : 6 каналов
    ChannelLayout : L R C LFE Ls Rs
    Частота : 48,0 КГц
    Частота кадров : 31,250 кадров/сек (1536 SPF)
    Метод сжатия : С потерями
    Размер потока : 53,3 Мбайт (6%)
    Язык : Russian
    ServiceKind/String : Complete Main
    Default : Да
    Forced : Нет
    Аудио #2
    Идентификатор : 3
    Формат : AC-3
    Формат/Информация : Audio Coding 3
    Коммерческое название : Dolby Digital
    Идентификатор кодека : A_AC3
    Продолжительность : 19 м. 24 с.
    Вид битрейта : Постоянный
    Битрейт : 384 Кбит/сек
    Каналы : 6 каналов
    ChannelLayout : L R C LFE Ls Rs
    Частота : 48,0 КГц
    Частота кадров : 31,250 кадров/сек (1536 SPF)
    Метод сжатия : С потерями
    Размер потока : 53,3 Мбайт (6%)
    Язык : English
    ServiceKind/String : Complete Main
    Default : Нет
    Forced : Нет
    Текст #1
    Идентификатор : 4
    Формат : ASS
    Идентификатор кодека : S_TEXT/ASS
    Идентификатор кодека/Информация : Advanced Sub Station Alpha
    Продолжительность : 10 м. 46 с.
    Битрейт : 2 бит/сек
    ElementCount : 3
    Метод сжатия : Без потерь
    Размер потока : 240 байт (0%)
    Заголовок : Forced
    Язык : Russian
    Default : Да
    Forced : Да
    Текст #2
    Идентификатор : 5
    Формат : UTF-8
    Идентификатор кодека : S_TEXT/UTF8
    Идентификатор кодека/Информация : UTF-8 Plain Text
    Продолжительность : 18 м. 49 с.
    Битрейт : 133 бит/сек
    ElementCount : 431
    Размер потока : 18,4 Кбайт (0%)
    Язык : Russian
    Default : Нет
    Forced : Нет
    -

    Скриншоты:

    -

    _________________
    Показать сообщения:    
    Главная  Сериалы  Американские и Европейские сериалы

    Текущее время: 28-Янв 11:11

    Часовой пояс: UTC + 11



    Вы не можете начинать темы
    Вы не можете отвечать на сообщения
    Вы не можете редактировать свои сообщения
    Вы не можете удалять свои сообщения
    Вы не можете голосовать в опросах
    Вы не можете прикреплять файлы к сообщениям
    Вы не можете скачивать файлы