Уважаемые гости сайта! Добро Пожаловать на наш торрент трекер,где Вы можете бесплатно скачать любой Софт,Фильмы,Музыку и многое другое! А так же постоянно ведется набор модераторов и релизеров. Зарегистрируйтесь сейчас, чтобы получить доступ ко всем функциям. После регистрации или входа на сайт вы сможете создавать темы, отвечать на сообщения и скачивать файлы.

Навигация по Торрент раздачам и Форум и Стол заказов и Группы

 Нарко: Мексика / Narcos: Mexico / Сезон: 2 / Серии: 1-10 из 10 (Андрес Байс) [2020, Мексика, США, драма, криминал, WEBRip] DVO (Кубик в Кубе) + Original + Sub (Rus, Eng)

Главная  Сериалы  Американские и Европейские сериалы
Статистика раздачи
Нет
 
     
 
 
 
Автор Сообщение
  • Создавать темы 30-Ноя-2022 05:38

    Нарко: Мексика | Narcos: Mexico
    «The route of all evil»
    - Производство: Мексика, США
    Год выпуска: 2020
    Жанр: драма, криминал
    Продолжительность: ~ 01:05:00 серия-Перевод: Профессиональный (двухголосый закадровый) | Кубик в Кубе-Режиссёр: Андрес Байс, Амат Эскаланте, Алонсо Руис Палашиос, Джозеф Владыка-В ролях: Алисса Диас, Диего Луна, Майкл Пенья, Тереса Руис, Кларк Фриман, Марк Кубр, Андрес Альмейда, Хулио Седильо, Майк Дойл, Тесса Иа-Описание:
    Действие разворачивается в 80-е, во времена создания и развития мексиканского картеля Гвадалахары. Бывший полицейский, а ныне мелкий торговец марихуаной Мигель Анхель Феликс Гальярдо (Диего Луна) пробивает себе путь к руководству преступной организации и стремится построить свою империю. Он начинает с малого — с травки, а позже расширяет бизнес до более тяжелых наркотиков. Рассчитывая захватить власть над всем наркотрафиком, Гальярдо начинает транспортировать колумбийский кокаин в США. Проницательный и амбициозный лидер мечтает объединить разрозненных мексиканских дилеров в обширную сеть, производящую, обрабатывающую и перевозящую вещества из его родной страны в Америку. Противником мексиканского преступного мира выступит агент Кики Камарена (Майкл Пенья) из Управления по борьбе с наркотиками. Это правительственное агенство появилось всего пару лет назад и не пользуется уважением даже среди рядовых копов. Вместе со своей женой и маленьким сыном Кики переезжает из Калифорнии в Гвадалахару, чтобы заняться реальной полевой работой. Полный решимости наконец сажать за решетку настоящих наркобаронов, он быстро понимает, что его задание окажется более сложным, чем он мог себе представить. У местной полиции нет ни ресурсов, ни желания изменить ситуацию. У них даже нет полномочий арестовывать мексиканских бандитов. Однако Кики уверен, что может поменять расстановку сил сначала в Гвадалахаре, а потом и во всей стране. Несмотря на вездесущих коррумпированных чиновников, он разжигает азарт коллег и упорно идет к намеченной цели. Вскоре представители УБН организовывают целевую группу по борьбе с картелями. Так начала разворачиваться трагическая цепочка событий нарковойны, продолжающейся по сей день.
    -Качество видео: WEBRip
    Формат: AVI
    Видео: XviD, 704 x 352 (2.000), 23.976 fps, ~2000 kbps, ~0.34 Bits/Pixel
    Аудио Rus: AC-3, 48 kHz, 6 ch, 384 kbps |KvK|
    Аудио Eng: AC-3, 48 kHz, 6 ch, 384 kbps |Original|
    Субтитры: Rus, English (Forced, SDH)
    Реклама: Отсутствует -

    MediaInfo:

    Общее
    Полное имя : E:\\_Сериалы\\_Сериалы\\Барыги Мексика\\Narcos.Mexico.S02.WEBRip.KvK.CasStudio\\Narcos.Mexico.S02E01.WEBRip.KvK.CasStudio.avi
    Формат : AVI
    Формат/Информация : Audio Video Interleave
    Размер файла : 1,28 Гбайт
    Продолжительность : 1 ч. 5 м.
    Общий поток : 2785 Кбит/сек
    Программа кодирования : VirtualDubMod 1.5.10.3 | www.virtualdub-fr.org || (build 2550/release)
    Библиотека кодирования : VirtualDubMod build 2550/release
    Видео
    Идентификатор : 0
    Формат : MPEG-4 Visual
    Профиль формата : Advanced Simple@L5
    Настройки формата : BVOP1
    Параметр BVOP формата : 1
    Параметр QPel формата : Нет
    Параметр GMC формата : Без точки перехода
    Параметр матрицы формата : Default (MPEG)
    Идентификатор кодека : XVID
    Идентификатор кодека/Подсказка : XviD
    Продолжительность : 1 ч. 5 м.
    Битрейт : 2004 Кбит/сек
    Ширина : 704 пикселя
    Высота : 352 пикселя
    Соотношение сторон : 2,000
    Частота кадров : 23,976 (24000/1001) кадра/сек
    Цветовое пространство : YUV
    Субдискретизация насыщенности : 4:2:0
    Битовая глубина : 8 бит
    Тип развёртки : Прогрессивная
    Метод сжатия : С потерями
    Бит/(Пиксели*Кадры) : 0.337
    Размер потока : 942 Мбайт (72%)
    Библиотека кодирования : XviD 1.2.1 (UTC 2008-12-04)
    Аудио #1
    Идентификатор : 1
    Формат : AC-3
    Формат/Информация : Audio Coding 3
    Коммерческое название : Dolby Digital
    Идентификатор кодека : 2000
    Продолжительность : 1 ч. 5 м.
    Вид битрейта : Постоянный
    Битрейт : 384 Кбит/сек
    Каналы : 6 каналов
    ChannelLayout : L R C LFE Ls Rs
    Частота : 48,0 КГц
    Частота кадров : 31,250 кадров/сек (1536 SPF)
    Метод сжатия : С потерями
    Размер потока : 181 Мбайт (14%)
    Выравнивание : Разделение по промежуткам
    Продолжительность промежутка : 42 мс. (1,00 видеокадр)
    Время предзагрузки промежутка : 500 мс.
    ServiceKind/String : Complete Main
    Аудио #2
    Идентификатор : 2
    Формат : AC-3
    Формат/Информация : Audio Coding 3
    Коммерческое название : Dolby Digital
    Идентификатор кодека : 2000
    Продолжительность : 1 ч. 5 м.
    Вид битрейта : Постоянный
    Битрейт : 384 Кбит/сек
    Каналы : 6 каналов
    ChannelLayout : L R C LFE Ls Rs
    Частота : 48,0 КГц
    Частота кадров : 31,250 кадров/сек (1536 SPF)
    Метод сжатия : С потерями
    Размер потока : 181 Мбайт (14%)
    Выравнивание : Разделение по промежуткам
    Продолжительность промежутка : 42 мс. (1,00 видеокадр)
    Время предзагрузки промежутка : 500 мс.
    ServiceKind/String : Complete Main
    -

    Скриншоты:

    -

    _________________
    Показать сообщения:    
    Главная  Сериалы  Американские и Европейские сериалы

    Текущее время: 28-Янв 12:23

    Часовой пояс: UTC + 11



    Вы не можете начинать темы
    Вы не можете отвечать на сообщения
    Вы не можете редактировать свои сообщения
    Вы не можете удалять свои сообщения
    Вы не можете голосовать в опросах
    Вы не можете прикреплять файлы к сообщениям
    Вы не можете скачивать файлы