Уважаемые гости сайта! Добро Пожаловать на наш торрент трекер,где Вы можете бесплатно скачать любой Софт,Фильмы,Музыку и многое другое! А так же постоянно ведется набор модераторов и релизеров. Зарегистрируйтесь сейчас, чтобы получить доступ ко всем функциям. После регистрации или входа на сайт вы сможете создавать темы, отвечать на сообщения и скачивать файлы.

Навигация по Торрент раздачам и Форум и Стол заказов и Группы

 Мир Дикого запада / Westworld / Сезон: 3 / Серии: 1-8 из 8 (Ричард Дж. Льюис) [2020, США, фантастика, драма, детектив, вестерн, WEB-DL 720p] MVO (AlexFilm) + Original + Sub (Rus, Eng)

Главная  Сериалы  Американские и Европейские сериалы
Статистика раздачи
Нет
 
     
 
 
 
Автор Сообщение
  • Создавать темы 30-Ноя-2022 05:31

    Мир Дикого запада | Westworld
    «Здесь начинается жизнь»
    - Страна: США
    Год выпуска: 2020
    Жанр: фантастика, драма, детектив, вестерн
    Продолжительность: ~ 01:11:00 серия-Перевод: Профессиональный (многоголосый закадровый) AlexFilm-Режиссер: Ричард Дж. Льюис, Джонатан Нолан, Фред Туа
    В главных ролях: Эван Рэйчел Вуд (Dolores Abernathy), Тэнди Ньютон (Maeve Millay), Джеффри Райт (Bernard Lowe), Эд Харрис (Man in Black), Тесса Томпсон (Charlotte Hale), Люк Хемсворт (Ashley Stubbs), Аарон Пол (Caleb), Лина Уэйте (Ash), Уэйн Кол (Host), Венсан Кассель (Serac), Адриан Дев (Black Tie Host) и другие-Описание фильма:
    В футуристическом парке развлечений «Мир Дикого Запада» специально сконструированные андроиды выполняют любые прихоти посетителей, чтобы те чувствовали безнаказанность и полную свободу действий. Если робота убили — не беда, техники его починят, сотрут память и снова поставят в строй, навстречу новому дню и новым людским прихотям. Но оказывается, что далеко не все роботы теряют воспоминания.-
    -Качество видео: WEB-DL 720p
    Формат: MKV
    Видео: AVC, 1280 x 720 (1.778), 23.976 fps, ~4375 kbps
    Аудио Rus: AC-3, 48 kHz, 6 ch, 384 kbps |AlexFilm|
    Аудио Eng: AC-3, 48 kHz, 6 ch, 384 kbps |Original|
    Субтитры: Rus, Eng (SDH)
    Реклама: Отсутствует--

    Media Info

    Общее
    Уникальный идентификатор : 159250281862079776832426716301957949972 (0x77CE7D181A4D7665FF996B2037126A14)
    Полное имя : E:\\_Сериалы\\_Сериалы\\Мир Дикого Запада\\Westworld.s03.WEBDL.720p.AlexFilm\\Westworld.s03e01.WEBDL.720p.AF.RGzsRutracker.mkv
    Формат : Matroska
    Версия формата : Version 4
    Размер файла : 2,51 Гбайт
    Продолжительность : 1 ч. 11 м.
    Общий поток : 5012 Кбит/сек
    Дата кодирования : UTC 2020-03-18 14:18:51
    Программа кодирования : mkvmerge v44.0.0 ('Domino') 64-bit
    Библиотека кодирования : libebml v1.3.10 + libmatroska v1.5.2
    Видео
    Идентификатор : 1
    Формат : AVC
    Формат/Информация : Advanced Video Codec
    Профиль формата : High@L3.1
    Настройки формата : CABAC / 4 Ref Frames
    Параметр CABAC формата : Да
    Параметр RefFrames формата : 4 кадра
    Идентификатор кодека : V_MPEG4/ISO/AVC
    Продолжительность : 1 ч. 9 м.
    Вид битрейта : Постоянный
    Битрейт : 4375 Кбит/сек
    Номинальный битрейт : 6000 Кбит/сек
    Ширина : 1280 пикселей
    Высота : 720 пикселей
    Соотношение сторон : 16:9
    Режим частоты кадров : Постоянный
    Частота кадров : 23,976 (24000/1001) кадра/сек
    Цветовое пространство : YUV
    Субдискретизация насыщенности : 4:2:0
    Битовая глубина : 8 бит
    Тип развёртки : Прогрессивная
    Бит/(Пиксели*Кадры) : 0.198
    Размер потока : 2,14 Гбайт (85%)
    Язык : English
    Default : Да
    Forced : Нет
    Цветовой диапазон : Limited
    Основные цвета : BT.709
    Характеристики трансфера : BT.709
    Коэффициенты матрицы : BT.709
    Аудио #1
    Идентификатор : 2
    Формат : AC-3
    Формат/Информация : Audio Coding 3
    Коммерческое название : Dolby Digital
    Идентификатор кодека : A_AC3
    Продолжительность : 1 ч. 9 м.
    Вид битрейта : Постоянный
    Битрейт : 384 Кбит/сек
    Каналы : 6 каналов
    ChannelLayout : L R C LFE Ls Rs
    Частота : 48,0 КГц
    Частота кадров : 31,250 кадров/сек (1536 SPF)
    Метод сжатия : С потерями
    Размер потока : 192 Мбайт (7%)
    Язык : Russian
    ServiceKind/String : Complete Main
    Default : Да
    Forced : Нет
    Аудио #2
    Идентификатор : 3
    Формат : AC-3
    Формат/Информация : Audio Coding 3
    Коммерческое название : Dolby Digital
    Идентификатор кодека : A_AC3
    Продолжительность : 1 ч. 9 м.
    Вид битрейта : Постоянный
    Битрейт : 384 Кбит/сек
    Каналы : 6 каналов
    ChannelLayout : L R C LFE Ls Rs
    Частота : 48,0 КГц
    Частота кадров : 31,250 кадров/сек (1536 SPF)
    Метод сжатия : С потерями
    Размер потока : 192 Мбайт (7%)
    Заголовок : Original
    Язык : English
    ServiceKind/String : Complete Main
    Default : Нет
    Forced : Нет
    Текст #1
    Идентификатор : 4
    Формат : UTF-8
    Идентификатор кодека : S_TEXT/UTF8
    Идентификатор кодека/Информация : UTF-8 Plain Text
    Продолжительность : 1 ч. 6 м.
    Битрейт : 67 бит/сек
    ElementCount : 726
    Размер потока : 33,1 Кбайт (0%)
    Язык : Russian
    Default : Нет
    Forced : Нет
    Текст #2
    Идентификатор : 5
    Формат : UTF-8
    Идентификатор кодека : S_TEXT/UTF8
    Идентификатор кодека/Информация : UTF-8 Plain Text
    Продолжительность : 1 ч. 11 м.
    Битрейт : 51 бит/сек
    ElementCount : 872
    Размер потока : 27,1 Кбайт (0%)
    Язык : English
    Default : Нет
    Forced : Нет
    -

    Скриншоты


    -

    _________________
    Показать сообщения:    
    Главная  Сериалы  Американские и Европейские сериалы

    Текущее время: 28-Янв 10:22

    Часовой пояс: UTC + 11



    Вы не можете начинать темы
    Вы не можете отвечать на сообщения
    Вы не можете редактировать свои сообщения
    Вы не можете удалять свои сообщения
    Вы не можете голосовать в опросах
    Вы не можете прикреплять файлы к сообщениям
    Вы не можете скачивать файлы