Уважаемые гости сайта! Добро Пожаловать на наш торрент трекер,где Вы можете бесплатно скачать любой Софт,Фильмы,Музыку и многое другое! А так же постоянно ведется набор модераторов и релизеров. Зарегистрируйтесь сейчас, чтобы получить доступ ко всем функциям. После регистрации или входа на сайт вы сможете создавать темы, отвечать на сообщения и скачивать файлы.

Навигация по Торрент раздачам и Форум и Стол заказов и Группы

 Нэнси Дрю / Nancy Drew / Сезон: 1 / Серии: 1-18 из 18 (Ларри Тенг) [2019, США, детектив, WEB-DL 720p] MVO (NewStudio) + Original + Sub (Eng)

Главная  Сериалы  Американские и Европейские сериалы
Статистика раздачи
Нет
 
     
 
 
 
Автор Сообщение
  • Создавать темы 30-Ноя-2022 04:43

    Нэнси Дрю | Nancy Drew
    «***»
    - Производство: США
    Год выпуска: 2019
    Жанр: детектив
    Продолжительность: ~ 00:43:00 серия-Перевод: Профессиональный (многоголосый закадровый) | NewStudio-Режиссёр: Ларри Тенг-В ролях: Синед Карри, Тони Али, Альвина Аугуст, Уилл Чилтон, Барбара Эдди, Ангела Фэйрфилд, Эден Саммер Гилмор, Мэддисон Джайзани, Тунджи Касим, Леа Льюис-Описание:
    Нэнси Дрю только что окончила школу и собирается поступать в колледж в другом городе, а пока подрабатывает официанткой. Однако планы придётся отложить — происходит таинственное убийство, в котором подозревают нескольких подростков, в том числе и главную героиню. Ей придётся провести собственное расследование.---Качество видео: WEB-DL 720p
    Формат: MKV
    Видео: AVC, 1280 x 638 (2.006), 23.976 fps, ~4140 kbps
    Аудио Rus: AC-3, 48 kHz, 6 ch, 384 kbps |NewStudio|
    Аудио Eng: AC-3, 48 kHz, 6 ch, 384 kbps |Original|
    Субтитры: Rus (forced), Eng
    Реклама:Отсутствует
    -

    MediaInfo:

    Общее
    Уникальный идентификатор : 94669604036380925834009043579382247319 (0x4738B3D897C627CEB327194FC07BAF97)
    Полное имя : E:\\_Сериалы\\_Сериалы\\Нэнси Дрю\\Nancy.Drew.s01.WEBDL.720p.NewStudio\\Nancy.Drew.s01e01.WEBDL.720p.NewStudio.mkv
    Формат : Matroska
    Версия формата : Version 4
    Размер файла : 1,51 Гбайт
    Продолжительность : 43 м. 58 с.
    Общий поток : 4911 Кбит/сек
    Дата кодирования : UTC 2019-10-25 05:34:56
    Программа кодирования : mkvmerge v38.0.0 ('The Silent Type') 64-bit
    Библиотека кодирования : libebml v1.3.9 + libmatroska v1.5.2
    Видео
    Идентификатор : 1
    Формат : AVC
    Формат/Информация : Advanced Video Codec
    Профиль формата : High@L3.1
    Настройки формата : 2 Ref Frames
    Параметр CABAC формата : Нет
    Параметр RefFrames формата : 2 кадра
    Идентификатор кодека : V_MPEG4/ISO/AVC
    Продолжительность : 43 м. 58 с.
    Битрейт : 4140 Кбит/сек
    Ширина : 1280 пикселей
    Высота : 638 пикселей
    Соотношение сторон : 2,006
    Режим частоты кадров : Постоянный
    Частота кадров : 23,976 (24000/1001) кадра/сек
    Цветовое пространство : YUV
    Субдискретизация насыщенности : 4:2:0
    Битовая глубина : 8 бит
    Тип развёртки : Прогрессивная
    Бит/(Пиксели*Кадры) : 0.211
    Размер потока : 1,27 Гбайт (84%)
    Язык : English
    Default : Да
    Forced : Нет
    Цветовой диапазон : Limited
    Основные цвета : BT.709
    Характеристики трансфера : BT.709
    Коэффициенты матрицы : BT.709
    Аудио #1
    Идентификатор : 2
    Формат : AC-3
    Формат/Информация : Audio Coding 3
    Коммерческое название : Dolby Digital
    Идентификатор кодека : A_AC3
    Продолжительность : 43 м. 58 с.
    Вид битрейта : Постоянный
    Битрейт : 384 Кбит/сек
    Каналы : 6 каналов
    ChannelLayout : L R C LFE Ls Rs
    Частота : 48,0 КГц
    Частота кадров : 31,250 кадров/сек (1536 SPF)
    Метод сжатия : С потерями
    Задержка видео : -42 мс.
    Размер потока : 121 Мбайт (8%)
    Язык : Russian
    ServiceKind/String : Complete Main
    Default : Нет
    Forced : Нет
    Аудио #2
    Идентификатор : 3
    Формат : AC-3
    Формат/Информация : Audio Coding 3
    Коммерческое название : Dolby Digital
    Идентификатор кодека : A_AC3
    Продолжительность : 43 м. 58 с.
    Вид битрейта : Постоянный
    Битрейт : 384 Кбит/сек
    Каналы : 6 каналов
    ChannelLayout : L R C LFE Ls Rs
    Частота : 48,0 КГц
    Частота кадров : 31,250 кадров/сек (1536 SPF)
    Метод сжатия : С потерями
    Задержка видео : -42 мс.
    Размер потока : 121 Мбайт (8%)
    Язык : English
    ServiceKind/String : Complete Main
    Default : Да
    Forced : Нет
    Текст #1
    Идентификатор : 4
    Формат : ASS
    Идентификатор кодека : S_TEXT/ASS
    Идентификатор кодека/Информация : Advanced Sub Station Alpha
    Продолжительность : 5 м. 57 с.
    Битрейт : 7 бит/сек
    ElementCount : 4
    Метод сжатия : Без потерь
    Размер потока : 356 байт (0%)
    Язык : Russian
    Default : Да
    Forced : Да
    Текст #2
    Идентификатор : 5
    Формат : UTF-8
    Идентификатор кодека : S_TEXT/UTF8
    Идентификатор кодека/Информация : UTF-8 Plain Text
    Продолжительность : 43 м. 43 с.
    Битрейт : 72 бит/сек
    ElementCount : 796
    Размер потока : 23,4 Кбайт (0%)
    Язык : English
    Default : Нет
    Forced : Нет
    -

    Скриншоты:

    -

    _________________
    Показать сообщения:    
    Главная  Сериалы  Американские и Европейские сериалы

    Текущее время: 28-Янв 11:36

    Часовой пояс: UTC + 11



    Вы не можете начинать темы
    Вы не можете отвечать на сообщения
    Вы не можете редактировать свои сообщения
    Вы не можете удалять свои сообщения
    Вы не можете голосовать в опросах
    Вы не можете прикреплять файлы к сообщениям
    Вы не можете скачивать файлы