Уважаемые гости сайта! Добро Пожаловать на наш торрент трекер,где Вы можете бесплатно скачать любой Софт,Фильмы,Музыку и многое другое! А так же постоянно ведется набор модераторов и релизеров. Зарегистрируйтесь сейчас, чтобы получить доступ ко всем функциям. После регистрации или входа на сайт вы сможете создавать темы, отвечать на сообщения и скачивать файлы.

Навигация по Торрент раздачам и Форум и Стол заказов и Группы

 Блудный сын / Prodigal Son / Сезон: 1 / Серии: 1-20 из 20 (Ли Толанд Кригер) [2019, США, драма, криминал, WEB-DL 720p] MVO (Lostfilm) + Original (Eng) + Sub (rus, eng)

Главная  Сериалы  Американские и Европейские сериалы
Статистика раздачи
Нет
 
     
 
 
 
Автор Сообщение
  • Создавать темы 30-Ноя-2022 04:39

    Блудный сын | Prodigal Son
    «Enter the mind of a serial killer»
    - Производство: США
    Год выпуска: 2019
    Жанр: драма, криминал
    Продолжительность: ~ 00:45:00 серия-Перевод: Профессиональный (многоголосый закадровый) | Lostfilm-Режиссёр: Ли Толанд Кригер-В ролях: Том Пэйн, Майкл Шин, Аврора Перрино, Кейко Аджена, Лу Даймонд Филлипс, Холстон Сейдж, Дебора Унгер, Беллами Янг, Фрэнк Хартс-Описание:
    Главный герой истории — страдающий неврозами психолог-криминалист Малкольм Брайт — блестяще разбирается в образе мыслей маньяков. А все потому, что является сыном знаменитого серийного убийцы Хирурга. Малкольм помогает полиции Нью-Йорка раскрывать запутанные преступления. Параллельно с этим мужчина пытается наладить общение со своими непростыми родственниками: склонной к манипулированию матерью, раздражающе нормальной сестрой и отцом-убийцей, стремящимся наладить отношения с сыном.-Качество видео: WEB-DL 720p
    Формат: MKV
    Видео: AVC, 1280 x 640 (2.000), 23.976 fps, ~3675 kbps
    Аудио Rus: AC-3, 48 kHz, 2 ch, 384 kbps |Lostfilm|
    Аудио Eng: E-AC-3, 48 kHz, 6 ch, 640 kbps |Original|
    Субтитры: Rus (FOCS), Eng (SDH)
    Реклама: Отсутствует
    -

    MediaInfo:

    Общее
    Уникальный идентификатор : 201206611557234106683888720778244653799 (0x975EFBDBAC000186171815814BD402E7)
    Полное имя : E:\\_Сериалы\\_Сериалы\\Блудный сын\\Prodigal.Son.s01.WEBDL.720p.LostFilm\\Prodigal.Son.S01E01.WEBDL.720p.LostFilm.mkv
    Формат : Matroska
    Версия формата : Version 4
    Размер файла : 1,50 Гбайт
    Продолжительность : 45 м. 34 с.
    Общий поток : 4701 Кбит/сек
    Дата кодирования : UTC 2019-09-27 09:13:40
    Программа кодирования : mkvmerge v37.0.0 ('Leave It') 64-bit
    Библиотека кодирования : libebml v1.3.9 + libmatroska v1.5.2
    Видео
    Идентификатор : 1
    Формат : AVC
    Формат/Информация : Advanced Video Codec
    Профиль формата : High@L3.1
    Настройки формата : CABAC / 4 Ref Frames
    Параметр CABAC формата : Да
    Параметр RefFrames формата : 4 кадра
    Идентификатор кодека : V_MPEG4/ISO/AVC
    Продолжительность : 45 м. 34 с.
    Вид битрейта : Постоянный
    Битрейт : 3675 Кбит/сек
    Номинальный битрейт : 6000 Кбит/сек
    Ширина : 1280 пикселей
    Высота : 640 пикселей
    Соотношение сторон : 2,000
    Режим частоты кадров : Постоянный
    Частота кадров : 23,976 (24000/1001) кадра/сек
    Цветовое пространство : YUV
    Субдискретизация насыщенности : 4:2:0
    Битовая глубина : 8 бит
    Тип развёртки : Прогрессивная
    Бит/(Пиксели*Кадры) : 0.187
    Размер потока : 1,17 Гбайт (78%)
    Язык : English
    Default : Да
    Forced : Нет
    Цветовой диапазон : Limited
    Основные цвета : BT.709
    Характеристики трансфера : BT.709
    Коэффициенты матрицы : BT.709
    Аудио #1
    Идентификатор : 2
    Формат : AC-3
    Формат/Информация : Audio Coding 3
    Коммерческое название : Dolby Digital
    Идентификатор кодека : A_AC3
    Продолжительность : 45 м. 34 с.
    Вид битрейта : Постоянный
    Битрейт : 384 Кбит/сек
    Каналы : 2 канала
    ChannelLayout : L R
    Частота : 48,0 КГц
    Частота кадров : 31,250 кадров/сек (1536 SPF)
    Метод сжатия : С потерями
    Размер потока : 125 Мбайт (8%)
    Язык : Russian
    ServiceKind/String : Complete Main
    Default : Да
    Forced : Нет
    Аудио #2
    Идентификатор : 3
    Формат : E-AC-3
    Формат/Информация : Enhanced AC-3
    Коммерческое название : Dolby Digital Plus
    Идентификатор кодека : A_EAC3
    Продолжительность : 45 м. 34 с.
    Вид битрейта : Постоянный
    Битрейт : 640 Кбит/сек
    Каналы : 6 каналов
    ChannelLayout : L R C LFE Ls Rs
    Частота : 48,0 КГц
    Частота кадров : 31,250 кадров/сек (1536 SPF)
    Метод сжатия : С потерями
    Размер потока : 209 Мбайт (14%)
    Язык : English
    ServiceKind/String : Complete Main
    Default : Нет
    Forced : Нет
    Текст #1
    Идентификатор : 4
    Формат : UTF-8
    Идентификатор кодека : S_TEXT/UTF8
    Идентификатор кодека/Информация : UTF-8 Plain Text
    Продолжительность : 45 м. 2 с.
    Битрейт : 117 бит/сек
    ElementCount : 796
    Размер потока : 38,8 Кбайт (0%)
    Язык : Russian
    Default : Нет
    Forced : Нет
    Текст #2
    Идентификатор : 5
    Формат : UTF-8
    Идентификатор кодека : S_TEXT/UTF8
    Идентификатор кодека/Информация : UTF-8 Plain Text
    Продолжительность : 44 м. 49 с.
    Битрейт : 75 бит/сек
    ElementCount : 867
    Размер потока : 24,7 Кбайт (0%)
    Заголовок : SDH
    Язык : English
    Default : Нет
    Forced : Нет
    -

    Скриншоты:


    _________________
    Показать сообщения:    
    Главная  Сериалы  Американские и Европейские сериалы

    Текущее время: 28-Янв 10:33

    Часовой пояс: UTC + 11



    Вы не можете начинать темы
    Вы не можете отвечать на сообщения
    Вы не можете редактировать свои сообщения
    Вы не можете удалять свои сообщения
    Вы не можете голосовать в опросах
    Вы не можете прикреплять файлы к сообщениям
    Вы не можете скачивать файлы