Уважаемые гости сайта! Добро Пожаловать на наш торрент трекер,где Вы можете бесплатно скачать любой Софт,Фильмы,Музыку и многое другое! А так же постоянно ведется набор модераторов и релизеров. Зарегистрируйтесь сейчас, чтобы получить доступ ко всем функциям. После регистрации или входа на сайт вы сможете создавать темы, отвечать на сообщения и скачивать файлы.

Навигация по Торрент раздачам и Форум и Стол заказов и Группы

 Хэппи! / Happy! / Сезон: 2 / Серии: 1-10 из 10 (Брайан Тейлор) [2019, США, фэнтези, боевик, триллер, комедия, криминал, детектив, BDRemux 1080p] DVO (Кубик в Кубе) + Original (Eng)

Главная  Сериалы  Американские и Европейские сериалы
Статистика раздачи
Нет
 
     
 
 
 
Автор Сообщение
  • Создавать темы 29-Ноя-2022 04:23

    Хэппи | Happy
    «Say Hello to His Little Friend»
    - Производство: США
    Год выпуска: 2019
    Жанр: фэнтези, боевик, триллер, комедия, криминал, детектив
    Продолжительность: ~ 00:48:00 серия-Перевод: Профессиональный двухголосый | Кубик в Кубе-Режиссёр: Брайан Тейлор, Уэйн Йип, Марианна Пока-В ролях: Кристофер Мелони, Рен Колли, Александр Джеймисон, Брайс Лоренцо, Майкл Мейзе, Лили Мирожник, Скотт Барик, Бен Коул, Данте Перейра-Олсон, Маттиас Себастьан Гарри-Описание:
    Ник Сакс, вечно пьяный бывший полицейский, становится наёмным убийцей. Он плывёт по течению в мире случайных смертей, секса и предательства. Когда одно из его дел идёт наперекосяк, нетрезвая жизнь Сакса навсегда меняется с появлением крошечного, вечно положительного, воображаемого голубого крылатого единорога.
    -Качество видео: BDRemux 1080р
    Формат: MKV
    Видео: MPEG4, 1920 x 1080 (1.778), 23.976 fps, 15,0 Mbps
    Аудио Rus: DTS-HD MA, 48 kHz, 6 ch, 3762 kbps |Кубик в Кубе|
    Аудио Eng: DTS-HD MA, 48 kHz, 6 ch, 3702 kbps |Original|
    Субтитры: Отсутствуют
    Реклама: Отсутствует
    -

    MediaInfo:

    Общее
    Уникальный идентификатор : 5732078248373514482542983204767614482 (0x44FF546F9137D57BED7B0670BB54612)
    Полное имя : D:\\Marat\\Happy.S02E01.BDRemux.1080p.Rus.Eng\\Happy.S02E01.BDRemux.1080p.Rus.Eng.mkv
    Формат : Matroska
    Версия формата : Version 4
    Размер файла : 7,61 Гбайт
    Продолжительность : 48 м. 25 с.
    Режим общего битрейта : Переменный
    Общий поток : 22,5 Мбит/сек
    Название фильма : Happy 2x01 (2019) - Release for kogesan
    Дата кодирования : UTC 2020-04-30 20:06:50
    Программа кодирования : mkvmerge v45.0.0 ('Heaven in Pennies') 64-bit
    Библиотека кодирования : libebml v1.3.10 + libmatroska v1.5.2
    Видео
    Идентификатор : 1
    Формат : AVC
    Формат/Информация : Advanced Video Codec
    Профиль формата : High@L4.1
    Настройки формата : CABAC / 4 Ref Frames
    Параметр CABAC формата : Да
    Параметр RefFrames формата : 4 кадра
    Идентификатор кодека : V_MPEG4/ISO/AVC
    Продолжительность : 48 м. 25 с.
    Вид битрейта : Переменный
    Битрейт : 15,0 Мбит/сек
    Максимальный битрейт : 20,0 Мбит/сек
    Ширина : 1 920 пикселей
    Высота : 1 080 пикселей
    Соотношение сторон : 16:9
    Режим частоты кадров : Постоянный
    Частота кадров : 23,976 (24000/1001) кадра/сек
    Стандарт вещания : NTSC
    Цветовое пространство : YUV
    Субдискретизация насыщенности : 4:2:0
    Битовая глубина : 8 бит
    Тип развёртки : Прогрессивная
    Бит/(Пиксели*Кадры) : 0.302
    Размер потока : 5,09 Гбайт (67%)
    Заголовок : Happy 2x01 (2019) - Release for kogesan
    Язык : English
    Default : Да
    Forced : Нет
    Цветовой диапазон : Limited
    Основные цвета : BT.709
    Характеристики трансфера : BT.709
    Коэффициенты матрицы : BT.709
    Аудио #1
    Идентификатор : 2
    Формат : DTS XLL
    Формат/Информация : Digital Theater Systems
    Коммерческое название : DTS-HD Master Audio
    Идентификатор кодека : A_DTS
    Продолжительность : 48 м. 24 с.
    Вид битрейта : Переменный
    Битрейт : 3 762 Кбит/сек
    Каналы : 6 каналов
    Channel layout : C L R Ls Rs LFE
    Частота : 48,0 КГц
    Частота кадров : 93,750 кадра/сек (512 SPF)
    Битовая глубина : 24 бит
    Метод сжатия : Без потерь
    Размер потока : 1,27 Гбайт (17%)
    Заголовок : KVK
    Язык : Russian
    Default : Да
    Forced : Нет
    Аудио #2
    Идентификатор : 3
    Формат : DTS XLL
    Формат/Информация : Digital Theater Systems
    Коммерческое название : DTS-HD Master Audio
    Идентификатор кодека : A_DTS
    Продолжительность : 48 м. 24 с.
    Вид битрейта : Переменный
    Битрейт : 3 702 Кбит/сек
    Каналы : 6 каналов
    Channel layout : C L R Ls Rs LFE
    Частота : 48,0 КГц
    Частота кадров : 93,750 кадра/сек (512 SPF)
    Битовая глубина : 24 бит
    Метод сжатия : Без потерь
    Размер потока : 1,25 Гбайт (16%)
    Заголовок : English
    Язык : English
    Default : Нет
    Forced : Нет
    Меню
    00:00:00.000 : en:Глава 01
    00:15:50.324 : en:Глава 02
    00:24:51.072 : en:Глава 03
    00:34:35.990 : en:Глава 04
    -

    Скриншоты:

    -

    _________________
    Показать сообщения:    
    Главная  Сериалы  Американские и Европейские сериалы

    Текущее время: 28-Янв 10:45

    Часовой пояс: UTC + 11



    Вы не можете начинать темы
    Вы не можете отвечать на сообщения
    Вы не можете редактировать свои сообщения
    Вы не можете удалять свои сообщения
    Вы не можете голосовать в опросах
    Вы не можете прикреплять файлы к сообщениям
    Вы не можете скачивать файлы