Уважаемые гости сайта! Добро Пожаловать на наш торрент трекер,где Вы можете бесплатно скачать любой Софт,Фильмы,Музыку и многое другое! А так же постоянно ведется набор модераторов и релизеров. Зарегистрируйтесь сейчас, чтобы получить доступ ко всем функциям. После регистрации или входа на сайт вы сможете создавать темы, отвечать на сообщения и скачивать файлы.

Навигация по Торрент раздачам и Форум и Стол заказов и Группы

 Родина / Homeland / Сезон: 8 / Серии: 1-12 из 12 (Лесли Линка Глаттер) [2020, США, триллер, драма, криминал, детектив, WEB-DL 720p] MVO (LostFilm) + Original + Sub (rus, eng)

Главная  Сериалы  Американские и Европейские сериалы
Статистика раздачи
Нет
 
     
 
 
 
Автор Сообщение
  • Создавать темы 29-Ноя-2022 03:48

    Родина | Homeland
    «The nation sees a hero. She sees a threat..»
    - Производство: США
    Год выпуска: 2020
    Жанр: триллер, драма, криминал, детектив
    Продолжительность: ~ 00:59:00 серия-Перевод: Профессиональный (многоголосый закадровый) | LostFilm-Режиссёр: Лесли Линка Глаттер, Майкл Куэста, Дэниэл Эттиэс-В ролях: Клэр Дэйнс, Элизабет Марвел, Мори Стерлинг, Лайнас Роуч, Джейк Уэбер, Морган Спектор, Мэнди Патинкин, Ф. Мюррей Абрахам-Описание:
    Противостояние между главным террористом Америки и агентом ЦРУ уже закончилось. Блондинка выиграла эту войну. Броуди теперь мертв, а Соул уволен из ЦРУ. Кэрри Мэттисон продолжает деятельность, надеясь, что справится с многочисленными очагами возгорания террористической активности. Она - уверенная в себе девушка, которая знает, как работать с подобными делами. Главная героиня долгое время отдавала честь родине и стремилась защитить её границы. Теперь её ожидают новые испытания.
    -
    Качество видео: WEB-DL 720p
    Формат: MKV
    Видео: AVC, 1280 x 720 (1.778), 23.976 fps, ~3692 kbps
    Аудио Rus: AC-3, 48 kHz, 2 ch, 384 kbps |LostFilm|
    Аудио Eng: E-AC-3, 48 kHz, 6 ch, 640 kbps |Original|
    Субтитры: Rus, Eng (SDH)
    Реклама: Отсутствует
    -

    MediaInfo:

    Общее
    Уникальный идентификатор : 180798787488354077323983168943752107641 (0x88049472932566D06C9D9063C9D65679)
    Полное имя : E:\\_Сериалы\\_Сериалы\\Родина\\Homeland.S08.WEBDL.720p.LostFilm\\Homeland.S08E01.WEBDL.720p.LF.RGzsRutracker.mkv
    Формат : Matroska
    Версия формата : Version 4
    Размер файла : 1,96 Гбайт
    Продолжительность : 59 м. 22 с.
    Общий поток : 4718 Кбит/сек
    Дата кодирования : UTC 2020-02-12 18:06:00
    Программа кодирования : mkvmerge v43.0.0 ('The Quartermaster') 64-bit
    Библиотека кодирования : libebml v1.3.10 + libmatroska v1.5.2
    Видео
    Идентификатор : 1
    Формат : AVC
    Формат/Информация : Advanced Video Codec
    Профиль формата : High@L3.1
    Настройки формата : CABAC / 4 Ref Frames
    Параметр CABAC формата : Да
    Параметр RefFrames формата : 4 кадра
    Идентификатор кодека : V_MPEG4/ISO/AVC
    Продолжительность : 59 м. 22 с.
    Вид битрейта : Постоянный
    Битрейт : 3692 Кбит/сек
    Номинальный битрейт : 6000 Кбит/сек
    Ширина : 1280 пикселей
    Высота : 720 пикселей
    Соотношение сторон : 16:9
    Режим частоты кадров : Постоянный
    Частота кадров : 23,976 (24000/1001) кадра/сек
    Цветовое пространство : YUV
    Субдискретизация насыщенности : 4:2:0
    Битовая глубина : 8 бит
    Тип развёртки : Прогрессивная
    Бит/(Пиксели*Кадры) : 0.167
    Размер потока : 1,53 Гбайт (78%)
    Язык : English
    Default : Да
    Forced : Нет
    Цветовой диапазон : Limited
    Основные цвета : BT.709
    Характеристики трансфера : BT.709
    Коэффициенты матрицы : BT.709
    Аудио #1
    Идентификатор : 2
    Формат : AC-3
    Формат/Информация : Audio Coding 3
    Коммерческое название : Dolby Digital
    Идентификатор кодека : A_AC3
    Продолжительность : 59 м. 22 с.
    Вид битрейта : Постоянный
    Битрейт : 384 Кбит/сек
    Каналы : 2 канала
    ChannelLayout : L R
    Частота : 48,0 КГц
    Частота кадров : 31,250 кадров/сек (1536 SPF)
    Метод сжатия : С потерями
    Размер потока : 163 Мбайт (8%)
    Язык : Russian
    ServiceKind/String : Complete Main
    Default : Да
    Forced : Нет
    Аудио #2
    Идентификатор : 3
    Формат : E-AC-3
    Формат/Информация : Enhanced AC-3
    Коммерческое название : Dolby Digital Plus
    Идентификатор кодека : A_EAC3
    Продолжительность : 59 м. 22 с.
    Вид битрейта : Постоянный
    Битрейт : 640 Кбит/сек
    Каналы : 6 каналов
    ChannelLayout : L R C LFE Ls Rs
    Частота : 48,0 КГц
    Частота кадров : 31,250 кадров/сек (1536 SPF)
    Метод сжатия : С потерями
    Задержка видео : 18 мс.
    Размер потока : 272 Мбайт (14%)
    Язык : English
    ServiceKind/String : Complete Main
    Default : Нет
    Forced : Нет
    Текст #1
    Идентификатор : 4
    Формат : UTF-8
    Идентификатор кодека : S_TEXT/UTF8
    Идентификатор кодека/Информация : UTF-8 Plain Text
    Продолжительность : 57 м. 32 с.
    Битрейт : 90 бит/сек
    ElementCount : 745
    Размер потока : 38,1 Кбайт (0%)
    Язык : Russian
    Default : Нет
    Forced : Нет
    Текст #2
    Идентификатор : 5
    Формат : UTF-8
    Идентификатор кодека : S_TEXT/UTF8
    Идентификатор кодека/Информация : UTF-8 Plain Text
    Продолжительность : 56 м. 47 с.
    Битрейт : 67 бит/сек
    ElementCount : 1060
    Размер потока : 28,0 Кбайт (0%)
    Заголовок : SDH
    Язык : English
    Default : Нет
    Forced : Нет
    -

    Скриншоты:


    -

    _________________
    Показать сообщения:    
    Главная  Сериалы  Американские и Европейские сериалы

    Текущее время: 28-Янв 11:18

    Часовой пояс: UTC + 11



    Вы не можете начинать темы
    Вы не можете отвечать на сообщения
    Вы не можете редактировать свои сообщения
    Вы не можете удалять свои сообщения
    Вы не можете голосовать в опросах
    Вы не можете прикреплять файлы к сообщениям
    Вы не можете скачивать файлы